<?xml version="1.0" standalone="no"?>
<!DOCTYPE svg PUBLIC "-//W3C//DTD SVG 1.1//EN" "http://www.w3.org/Graphics/SVG/1.1/DTD/svg11.dtd" >
<svg xmlns="http://www.w3.org/2000/svg">
<metadata>Generated by IcoMoon</metadata>
<defs>
<font id="ready-and-able-icon-font-v04" horiz-adv-x="1024">
<font-face units-per-em="1024" ascent="960" descent="-64" />
<missing-glyph horiz-adv-x="1024" />
<glyph unicode="&#x20;" horiz-adv-x="512" d="" />
<glyph unicode="&#xe900;" glyph-name="breadcrumb-wrench" d="M579.656 178.688v538.47c41.538 23.556 69.109 67.473 69.109 117.83 0 56.050-34.157 104.122-82.791 124.537l-0.89 0.331v-124.928l-102.318 0.143v124.928c-49.565-20.74-83.755-68.84-83.755-124.926 0-50.998 28.269-95.394 69.991-118.372l0.698-0.352-0.072-536.699c-42.438-23.323-70.72-67.726-70.72-118.735 0-56.080 34.186-104.176 82.856-124.584l0.89-0.331v124.928h102.4v-124.928c49.531 20.736 83.697 68.808 83.697 124.861 0 50.36-27.578 94.279-68.456 117.478l-0.669 0.349z" />
<glyph unicode="&#xe901;" glyph-name="call-and-text" d="M927.683 959.99h-468.828c-44.462 0-80.824-40.397-80.824-89.743v-281.17c0-45.21 30.546-82.801 69.847-88.801l-21.371-105.636 150.118 104.704h351.037c44.442 0 80.824 40.376 80.824 89.723v281.18c0.010 49.357-36.362 89.743-80.804 89.743zM801.649 613.54h-313.539v41.523h313.539zM921.354 710.574h-433.244v41.523h433.254zM921.354 807.629h-433.244v41.523h433.254zM800.645 172.728c-121.068 99.553-156.119 52.224-211.261-1.495-40.284-39.301-134.943 44.083-217.641 128.625-81.418 85.821-159.877 184.924-122.286 221.594 57.805 53.74 107.295 86.262 10.516 209.469-94.208 123.146-161.72 31.089-215.501-21.32-61.809-60.273-8.735-289.065 211.681-519.823 224.451-229.489 450.877-291.84 514.048-232.919 53.77 52.429 148.849 116.316 30.495 215.869z" />
<glyph unicode="&#xe902;" glyph-name="clock1" d="M512 780.001c-183.359 0-332.001-148.642-332.001-332.001s148.642-332.001 332.001-332.001c183.359 0 332.001 148.642 332.001 332.001v0c-0.21 183.275-148.726 331.792-331.981 332.001h-0.020zM639.222 278.354l-157.225 157.225v282.419h59.996v-257.577l139.653-139.643zM512 960c-282.77 0-512-229.23-512-512s229.23-512 512-512c282.77 0 512 229.23 512 512v0c0 0.161 0 0.352 0 0.543 0 282.47-228.987 511.457-511.457 511.457-0.191 0-0.382 0-0.573 0h0.030zM512 56.003c-216.494 0-391.997 175.503-391.997 391.997s175.503 391.997 391.997 391.997c216.494 0 391.997-175.503 391.997-391.997v0c-0.256-216.391-175.606-391.741-391.972-391.997h-0.025z" />
<glyph unicode="&#xe903;" glyph-name="close" d="M870.984-37.56l-358.963 359.045-359.035-359.045c-16.225-16.296-38.677-26.38-63.485-26.38-49.473 0-89.58 40.106-89.58 89.58 0 24.825 10.099 47.292 26.412 63.517l358.967 359.049-358.963 359.035c-16.317 16.228-26.416 38.695-26.416 63.521 0 49.473 40.106 89.58 89.58 89.58 24.808 0 47.26-10.084 63.482-26.377l359.038-359.038 358.963 359.035c16.223 16.233 38.639 26.274 63.401 26.274 49.503 0 89.634-40.13 89.634-89.634 0-24.741-10.024-47.142-26.233-63.36l-359.045-359.034 359.045-359.045c16.219-16.215 26.252-38.619 26.252-63.365 0-49.485-40.115-89.6-89.6-89.6-0.049 0-0.098 0-0.147 0h0.008c-0.114-0.001-0.249-0.001-0.384-0.001-24.608 0-46.873 10.036-62.923 26.239l-0.007 0.007z" />
<glyph unicode="&#xe904;" glyph-name="down-angle" d="M29.174 723.61c18.062 17.981 42.971 29.097 70.477 29.097s52.415-11.116 70.481-29.1l-0.004 0.004 340.746-340.398 340.572 340.398c18.239 19.417 44.078 31.511 72.742 31.511 55.072 0 99.717-44.645 99.717-99.717 0-28.662-12.092-54.499-31.453-72.689l-0.053-0.049-411.054-411.228c-18.062-17.981-42.971-29.097-70.477-29.097s-52.415 11.116-70.481 29.1l-411.214 411.040c-18.035 18.070-29.188 43.014-29.188 70.564s11.153 52.494 29.189 70.565l-0.002-0.002z" />
<glyph unicode="&#xe905;" glyph-name="drain" d="M512 959.99c-282.77 0-512-229.23-512-512s229.23-512 512-512c282.77 0 512 229.23 512 512v0c0 282.77-229.23 512-512 512v0zM677.304 736.113c15.92 15.921 37.914 25.769 62.208 25.769 48.586 0 87.972-39.386 87.972-87.972s-39.386-87.972-87.972-87.972c-48.584 0-87.969 39.383-87.972 87.966v0c0 0.072 0 0.157 0 0.243 0 24.217 9.849 46.133 25.76 61.962l0.004 0.004zM512 857.713c48.586 0 87.972-39.386 87.972-87.972s-39.386-87.972-87.972-87.972c-48.586 0-87.972 39.386-87.972 87.972v0c0.052 48.564 39.407 87.919 87.967 87.972h0.005zM222.29 737.71c15.919 15.915 37.909 25.759 62.198 25.759 48.586 0 87.972-39.386 87.972-87.972s-39.386-87.972-87.972-87.972c-48.586 0-87.972 39.386-87.972 87.972 0 0.002 0 0.004 0 0.006v0c0 0.070 0 0.154 0 0.237 0 24.22 9.853 46.14 25.77 61.967l0.004 0.004zM103.424 446.874c0 48.586 39.386 87.972 87.972 87.972s87.972-39.386 87.972-87.972c0-48.586-39.386-87.972-87.972-87.972-0.004 0-0.007 0-0.011 0h0.001c-48.56 0.058-87.909 39.411-87.962 87.967v0.005zM348.293 158.3c-15.92-15.921-37.914-25.769-62.208-25.769-48.586 0-87.972 39.386-87.972 87.972s39.386 87.972 87.972 87.972c48.584 0 87.969-39.383 87.972-87.966v0c0-0.073 0-0.16 0-0.247 0-24.215-9.849-46.13-25.76-61.957l-0.004-0.004zM512 38.298c-48.586 0-87.972 39.386-87.972 87.972s39.386 87.972 87.972 87.972c48.586 0 87.972-39.386 87.972-87.972v0c-0.052-48.564-39.407-87.919-87.967-87.972h-0.005zM512 279.962c-92.805 0-168.038 75.233-168.038 168.038s75.233 168.038 168.038 168.038c92.805 0 168.038-75.233 168.038-168.038 0-0.004 0-0.007 0-0.011v0.001c-0.116-92.754-75.283-167.913-168.028-168.018h-0.010zM801.71 158.3c-15.919-15.915-37.909-25.759-62.198-25.759-48.586 0-87.972 39.386-87.972 87.972s39.386 87.972 87.972 87.972c48.586 0 87.972-39.386 87.972-87.972 0-0.002 0-0.004 0-0.006v0c0-0.070 0-0.154 0-0.237 0-24.22-9.853-46.14-25.77-61.967l-0.004-0.004zM832.614 358.902c-0.003 0-0.007 0-0.010 0-48.586 0-87.972 39.386-87.972 87.972s39.386 87.972 87.972 87.972c48.586 0 87.972-39.386 87.972-87.972v0c-0.052-48.561-39.402-87.914-87.956-87.972h-0.006zM286.085 248.484c-0.002 0-0.004 0-0.006 0-15.451 0-27.976-12.525-27.976-27.976s12.525-27.976 27.976-27.976c15.451 0 27.976 12.525 27.976 27.976 0 7.726-3.132 14.721-8.196 19.784v0c-5.036 5.060-12.006 8.192-19.708 8.192-0.023 0-0.046 0-0.069 0h0.004zM539.986 769.741c0-15.451-12.525-27.976-27.976-27.976s-27.976 12.525-27.976 27.976c0 15.451 12.525 27.976 27.976 27.976s27.976-12.525 27.976-27.976zM539.986 126.269c0-15.451-12.525-27.976-27.976-27.976s-27.976 12.525-27.976 27.976c0 15.451 12.525 27.976 27.976 27.976s27.976-12.525 27.976-27.976zM739.533 645.929c15.449 0.002 27.972 12.526 27.972 27.976s-12.525 27.976-27.976 27.976-27.976-12.525-27.976-27.976c0-7.726 3.132-14.721 8.196-19.784v0c5.034-5.060 12.003-8.192 19.704-8.192 0.028 0 0.056 0 0.085 0h-0.004zM284.498 647.547c15.449 0.002 27.972 12.526 27.972 27.976s-12.525 27.976-27.976 27.976-27.976-12.525-27.976-27.976c0-7.726 3.132-14.721 8.196-19.784v0c5.033-5.060 12-8.192 19.699-8.192 0.030 0 0.059 0 0.089 0h-0.005zM219.372 446.874c0-15.451-12.525-27.976-27.976-27.976s-27.976 12.525-27.976 27.976c0 15.451 12.525 27.976 27.976 27.976s27.976-12.525 27.976-27.976zM739.533 248.484c-15.449-0.002-27.972-12.526-27.972-27.976s12.525-27.976 27.976-27.976 27.976 12.525 27.976 27.976c0 7.726-3.132 14.721-8.196 19.784v0c-5.034 5.060-12.003 8.192-19.704 8.192-0.028 0-0.056 0-0.085 0h0.004zM860.59 446.874c0-15.451-12.525-27.976-27.976-27.976s-27.976 12.525-27.976 27.976c0 15.451 12.525 27.976 27.976 27.976s27.976-12.525 27.976-27.976zM481.997 551.793c-45.449-13.438-78.048-54.806-78.048-103.788s32.598-90.35 77.283-103.593l0.764-0.194zM542.003 551.793v-207.565c45.44 13.444 78.030 54.807 78.030 103.782s-32.589 90.339-77.265 103.588l-0.764 0.194z" />
<glyph unicode="&#xe906;" glyph-name="emergency" d="M550.001 199.997c-0.006-22.086-17.911-39.987-39.997-39.987-22.090 0-39.997 17.907-39.997 39.997 0 22.072 17.878 39.968 39.943 39.997h0.003c0.015 0 0.033 0 0.051 0 22.090 0 39.997-17.907 39.997-39.997 0-0.004 0-0.007 0-0.011v0.001zM550.001 681.994c0 22.090-17.907 39.997-39.997 39.997s-39.997-17.907-39.997-39.997v-342.016c0-22.093 17.91-40.003 40.003-40.003s40.003 17.91 40.003 40.003v0zM874.035 809.994c-92.328 90.786-219.061 146.834-358.884 146.834-282.77 0-512-229.23-512-512 0-139.813 56.040-266.537 146.884-358.935l-0.070 0.072c92.682-92.657 220.708-149.965 362.119-149.965 97.865 0 189.319 27.448 267.085 75.065l-2.239-1.275c11.642 7.132 19.291 19.783 19.291 34.221 0 22.090-17.907 39.997-39.997 39.997-7.664 0-14.825-2.156-20.909-5.894l0.174 0.099c-64.718-40.171-143.238-63.982-227.318-63.982-240.688 0-435.804 195.116-435.804 435.804s195.116 435.804 435.804 435.804c240.688 0 435.804-195.116 435.804-435.804 0-90.112-27.349-173.836-74.2-243.324l0.985 1.55c-4.312-6.288-6.886-14.062-6.886-22.437 0-22.090 17.907-39.997 39.997-39.997 13.889 0 26.125 7.079 33.295 17.827l0.092 0.146c54.334 79.922 86.75 178.556 86.75 284.76 0 141.221-57.316 269.055-149.954 361.509l-0.008 0.008z" />
<glyph unicode="&#xe907;" glyph-name="error" d="M512 960c-282.77 0-512-229.23-512-512s229.23-512 512-512c282.77 0 512 229.23 512 512v0c0 0.085 0 0.186 0 0.287 0 282.611-229.102 511.713-511.713 511.713-0.101 0-0.202 0-0.302 0h0.016zM512 15.995c-238.59 0-432.005 193.415-432.005 432.005s193.415 432.005 432.005 432.005c238.59 0 432.005-193.415 432.005-432.005v0c0-0.073 0-0.159 0-0.246 0-238.454-193.305-431.759-431.759-431.759-0.086 0-0.173 0-0.259 0h0.013zM512 702.249c-22.090 0-39.997-17.907-39.997-39.997v0-257.587c0-22.093 17.91-40.003 40.003-40.003s40.003 17.91 40.003 40.003v0 257.587c0 22.090-17.907 39.997-39.997 39.997-0.004 0-0.007 0-0.011 0h0.001zM565.996 261.683c0-29.821-24.175-53.996-53.996-53.996s-53.996 24.175-53.996 53.996c0 29.821 24.175 53.996 53.996 53.996s53.996-24.175 53.996-53.996z" />
<glyph unicode="&#xe908;" glyph-name="facebook" d="M587.479-64v462.387h155.136l23.276 180.224h-178.412v115.149c0 52.173 14.428 87.726 89.324 87.726h95.375v161.219c-40.483 4.497-87.422 7.062-134.96 7.062-1.423 0-2.845-0.002-4.267-0.007l0.219 0.001c-137.595 0-231.793-83.968-231.793-238.193v-132.915h-155.617v-180.224h155.648v-462.428z" />
<glyph unicode="&#xe909;" glyph-name="fire" d="M655.729-20.47c37.1 74.199 81.306 200.54 19.548 254.976-56.924-8.55-102.963-8.602-140.411-0.195-94.321 21.187-124.17 95.939-98.212 191.642-126.894-115.958-132.25-286.945-85.207-451.584 0.728-2.463 1.148-5.294 1.148-8.222 0-16.582-13.442-30.024-30.024-30.024-6.184 0-11.932 1.87-16.708 5.075l0.108-0.068c-7.895 5.263-193.331 131.072-193.331 324.915 0 317.44 359.946 331.151 359.946 663.9 0.028 16.561 13.459 29.975 30.024 29.975 7.343 0 14.070-2.636 19.287-7.014l-0.046 0.038c143.831-120.658 405.565-410.696 390.871-677.448-7.281-132.239-79.124-244.736-213.545-334.346-4.651-3.102-10.368-4.95-16.518-4.95-16.587 0-30.034 13.447-30.034 30.034 0 4.843 1.146 9.418 3.182 13.468l-0.079-0.173z" />
<glyph unicode="&#xe90a;" glyph-name="google-plus" d="M931.113 570.88h-93.307v-92.887h-92.887v-93.317h92.887v-92.887h93.307v92.897h92.887v93.307h-92.887zM320 122.88c184.658 0 307.333 129.618 307.333 312.576 0 0.050 0 0.109 0 0.168 0 18.782-1.894 37.121-5.501 54.838l0.299-1.758h-302.080v-109.998h181.627c-7.424-46.725-54.999-137.943-181.627-137.943-110.005 2.137-198.362 91.816-198.362 202.132s88.357 199.995 198.162 202.129l0.2 0.003c1.103 0.024 2.403 0.038 3.706 0.038 47.98 0 91.57-18.796 123.808-49.427l-0.077 0.073 86.866 83.374c-54.722 51.901-128.842 83.819-210.417 83.819-1.384 0-2.766-0.009-4.146-0.028l0.209 0.002c-176.731 0-320-143.269-320-320s143.269-320 320-320v0z" />
<glyph unicode="&#xe90b;" glyph-name="installation" d="M866.478 908.247c-19.085 18.899-41.177 34.806-65.487 46.931l-1.472 0.665c-5.161 2.607-11.249 4.134-17.695 4.134-22.048 0-39.923-17.867-39.936-39.911v-173.456l-59.31-36.966-58.46 36.864v173.558c0 0.004 0 0.008 0 0.013 0 22.056-17.88 39.936-39.936 39.936-6.425 0-12.496-1.517-17.874-4.213l0.23 0.105c-26.306-12.745-48.858-28.68-68.401-47.694l0.059 0.057c-46.248-45.572-78.67-105.059-90.474-171.67l-0.283-1.929c-2.155-11.591-3.388-24.927-3.388-38.551 0-60.967 24.685-116.169 64.606-156.155l-0.003 0.003c25.921-23.925 57.22-42.441 91.848-53.513l1.746-0.482v-428.206c-0.001-0.143-0.001-0.312-0.001-0.48 0-32.788 13.215-62.49 34.61-84.069l-0.008 0.008c21.44-21.751 51.227-35.226 84.161-35.226 0.159 0 0.318 0 0.477 0.001h-0.024c66.244 0.052 119.964 53.602 120.289 119.777v0.031c0 22.056-17.88 39.936-39.936 39.936v0c-22.056 0-39.936-17.88-39.936-39.936v0c-0.34-22.101-18.314-39.892-40.454-39.936h-0.004c-0.061 0-0.133-0.001-0.205-0.001-10.817 0-20.602 4.413-27.655 11.538l-0.003 0.003c-7.116 7.225-11.511 17.148-11.511 28.098 0 0.101 0 0.202 0.001 0.303v-0.015 460.616c-0.009 21.076-16.343 38.334-37.043 39.816l-0.128 0.007c-31.010 5.372-58.194 18.954-80.033 38.407l0.161-0.14c-25.35 25.794-40.999 61.192-40.999 100.245 0 9.175 0.864 18.149 2.515 26.844l-0.141-0.892c8.205 45.997 28.747 86.214 58.050 118.29l-0.164-0.182v-116.326c0-0.003 0-0.006 0-0.010 0-14.157 7.367-26.594 18.476-33.686l0.161-0.096 98.304-61.921c6.036-3.858 13.396-6.149 21.292-6.149 7.821 0 15.117 2.248 21.277 6.134l-0.165-0.097 99.328 61.921c11.357 7.172 18.79 19.657 18.79 33.878 0 0.009 0 0.018 0 0.028v-0.001 114.821c34.412-37.905 56.068-87.94 57.877-142.997l0.009-0.363c0.014-0.719 0.021-1.568 0.021-2.418 0-37.838-15.262-72.112-39.966-97l0.008 0.008c-16.476-16.384-55.716-37.181-79.718-38.318-21.211-1.050-38.013-18.499-38.021-39.874v-258.971c0-22.056 17.88-39.936 39.936-39.936s39.936 17.88 39.936 39.936v226.14c36.664 11.555 68.204 30.24 94.413 54.587l-0.153-0.141c39.196 38.994 63.453 92.971 63.453 152.613 0 1.175-0.009 2.348-0.028 3.519l0.002-0.177c-0.041 74.926-34.796 154.307-93.020 212.337zM305.469 711.26c7.096 7.204 11.478 17.1 11.478 28.019 0 3.387-0.422 6.676-1.216 9.817l0.059-0.276-43.919 178.319c-4.441 17.569-20.104 30.364-38.758 30.372h-87.829c-18.646-0.017-34.298-12.81-38.679-30.096l-0.059-0.276-43.94-178.33c-0.735-2.865-1.157-6.154-1.157-9.541 0-10.919 4.382-20.814 11.483-28.024l-0.005 0.005 78.346-79.534v-192.051c-46.891-16.984-79.804-61.103-79.872-112.919v-270.938c0-66.15 53.611-119.779 119.754-119.808h0.003c66.168 0 119.808 53.64 119.808 119.808v270.93c-0.048 51.843-32.967 95.986-79.037 112.713l-0.835 0.265v196.065zM231.117 326.748v-270.94c0-22.056-17.88-39.936-39.936-39.936v0c-22.056 0-39.936 17.88-39.936 39.936v0 270.93c0 22.056 17.88 39.936 39.936 39.936s39.936-17.88 39.936-39.936v0zM189.194 707l-43.735 44.39 31.109 126.28h25.211l31.099-126.28z" />
<glyph unicode="&#xe90c;" glyph-name="left-angle" d="M786.074-34.826c17.981 18.062 29.097 42.971 29.097 70.477s-11.116 52.415-29.1 70.481l0.004-0.004-340.398 340.746 340.398 340.572c19.504 18.25 31.658 44.148 31.658 72.884 0 55.078-44.649 99.727-99.727 99.727-28.736 0-54.633-12.154-72.832-31.602l-0.052-0.056-411.228-411.013c-17.981-18.062-29.097-42.971-29.097-70.477s11.116-52.415 29.1-70.481l411.091-411.255c18.071-18.033 43.015-29.183 70.564-29.183s52.493 11.151 70.565 29.185l-0.002-0.002z" />
<glyph unicode="&#xe90d;" glyph-name="location" d="M517.12 960c-212.3-1.040-384.001-173.383-384.001-385.829 0-0.333 0-0.665 0.001-0.998v0.051c0-303.104 347.904-615.977 362.711-629.125 5.635-5.018 13.104-8.085 21.289-8.085s15.654 3.066 21.321 8.113l-0.032-0.028c14.807 13.148 362.711 326.062 362.711 629.125 0.001 0.281 0.001 0.614 0.001 0.946 0 212.446-171.701 384.788-383.902 385.828h-0.099zM517.12 362.67c-117.819 0-213.33 95.511-213.33 213.33s95.511 213.33 213.33 213.33c117.819 0 213.33-95.511 213.33-213.33v0c-0.14-117.763-95.567-213.19-213.316-213.33h-0.013z" />
<glyph unicode="&#xe90e;" glyph-name="maintenance" d="M644.004 14.5c1.721-4.299 2.719-9.282 2.719-14.498 0-16.877-10.45-31.313-25.233-37.191l-0.27-0.095c-41.838-16.908-90.357-26.718-141.168-26.718-0.468 0-0.936 0.001-1.404 0.002h0.072c-64.498 0.166-125.291 15.871-178.882 43.566l2.191-1.029c-55.533 28.481-102.574 65.529-141.35 109.975l-0.474 0.555c-78.967 88.836-127.768 206.023-129.481 334.576l-0.004 0.353v313.999c0.001 16.162 9.587 30.085 23.384 36.393l0.25 0.102 406.006 182.006c4.809 2.21 10.435 3.499 16.361 3.499 5.873 0 11.451-1.266 16.475-3.54l-0.252 0.102 409.999-182.006c14.119-6.382 23.767-20.342 23.767-36.556 0 0 0 0 0 0v0-313.999c-0.451-21.289-2.433-41.753-5.845-61.73l0.346 2.451-0.891-6.287c-2.827-19.569-19.484-34.437-39.613-34.437-22.093 0-40.002 17.91-40.002 40.002 0 1.963 0.141 3.893 0.415 5.781l-0.026-0.215 0.911 6.441c2.502 14.086 4.192 30.635 4.688 47.484l0.012 0.511v287.99l-369.91 164.209-366.080-164.106v-288.092c0-213.535 175.401-408.003 367.995-408.003 0.319-0.001 0.696-0.002 1.073-0.002 40.466 0 79.108 7.814 114.497 22.014l-2.071-0.734c4.304 1.726 9.293 2.727 14.516 2.727 16.874 0 31.308-10.449 37.183-25.231l0.095-0.27zM990.72 53.023c0-0.007 0-0.016 0-0.024 0-64.63-52.393-117.023-117.023-117.023-32.27 0-61.489 13.062-82.659 34.187l0.002-0.002-204.288 201.165c-23.712-10.69-51.317-17.339-80.359-18.32l-0.363-0.010h-0.338c-65.685 0.147-123.725 32.746-158.955 82.609l-0.41 0.612c-32.097 44.937-51.32 100.987-51.32 161.527 0 0.72 0.003 1.439 0.008 2.157l-0.001-0.11c0.341 25.822 5.034 50.441 13.374 73.306l-0.493-1.544c5.527 15.905 20.388 27.117 37.867 27.117 11.066 0 21.082-4.494 28.324-11.756l0.001-0.001 97.843-98.048 51.036 11.571 12.052 51.907-96.358 98.396c-7.066 7.208-11.426 17.090-11.426 27.991 0 17.508 11.25 32.389 26.915 37.809l0.281 0.085c20.683 7.514 44.557 11.916 69.442 12.042h0.517c0.786 0.008 1.714 0.013 2.643 0.013 72.082 0 137.582-28.184 186.080-74.133l-0.123 0.115c35.632-34.59 57.744-82.937 57.744-136.449 0-0.194 0-0.388-0.001-0.582v0.030c-1.155-29.386-8.265-56.844-20.147-81.574l0.538 1.242 205.332-201.554c21.165-21.059 34.264-50.208 34.264-82.417 0-0.117 0-0.234-0.001-0.35v0.018zM910.725 53.023c0 0.031 0 0.067 0 0.104 0 10.136-4.1 19.315-10.733 25.968l0.001-0.001-226.796 222.618c-7.396 7.263-11.98 17.369-11.98 28.545 0 8.811 2.849 16.957 7.677 23.567l-0.079-0.113c12.077 18.148 19.985 40.032 21.873 63.614l0.031 0.478c0 0.105 0.001 0.23 0.001 0.355 0 31.447-13.167 59.819-34.289 79.904l-0.047 0.044c-26.951 25.563-61.847 42.993-100.613 48.219l-0.937 0.103 52.654-53.77c7.062-7.209 11.42-17.090 11.42-27.989 0-3.209-0.378-6.331-1.092-9.322l0.055 0.272-22.651-97.731c-3.556-14.946-15.143-26.482-29.846-29.909l-0.27-0.053-97.034-21.965c-2.658-0.629-5.71-0.99-8.847-0.99-11.060 0-21.072 4.488-28.314 11.742l-53.935 54.047c4.207-32.999 16.246-62.564 34.185-87.617l-0.393 0.577c21.020-30.515 55.623-50.364 94.884-50.759h0.266c24.030 1.245 46.108 8.614 65.003 20.56l-0.553-0.326c6.464 4.676 14.55 7.479 23.291 7.479 10.935 0 20.846-4.387 28.068-11.498l-0.005 0.005 225.792-222.331c6.7-6.695 15.953-10.836 26.173-10.836 20.447 0 37.023 16.573 37.028 37.019v0z" />
<glyph unicode="&#xe90f;" glyph-name="menu" d="M960 58.88h-896c-35.346 0-64 28.654-64 64s28.654 64 64 64v0h896c35.346 0 64-28.654 64-64s-28.654-64-64-64v0zM960 378.88h-896c-35.346 0-64 28.654-64 64s28.654 64 64 64v0h896c35.346 0 64-28.654 64-64s-28.654-64-64-64v0zM960 698.88h-896c-35.346 0-64 28.654-64 64s28.654 64 64 64v0h896c35.346 0 64-28.654 64-64s-28.654-64-64-64v0z" />
<glyph unicode="&#xe910;" glyph-name="minus-circle" d="M512 881.234c-239.266-0.003-433.228-193.967-433.228-433.234 0-119.633 48.49-227.94 126.888-306.34v0c78.528-79.183 187.364-128.204 307.65-128.204 239.268 0 433.234 193.965 433.234 433.234 0 120.286-49.021 229.122-128.175 307.621l-0.029 0.029c-77.969 78.385-185.904 126.896-305.17 126.896-0.411 0-0.823-0.001-1.234-0.002h0.064zM512 960c282.77 0 512-229.23 512-512s-229.23-512-512-512c-282.77 0-512 229.23-512 512v0c0 282.77 229.23 512 512 512v0zM819.282 442.88c-0.006-21.758-17.645-39.393-39.404-39.393-0.004 0-0.007 0-0.011 0h-525.465c-21.756 0-39.393 17.637-39.393 39.393s17.637 39.393 39.393 39.393h525.466c0.003 0 0.007 0 0.010 0 21.758 0 39.398-17.636 39.404-39.393v-0.001z" />
<glyph unicode="&#xe911;" glyph-name="minus" d="M1024 452.895c0-36.884-29.901-66.785-66.785-66.785v0h-890.429c-36.884 0-66.785 29.901-66.785 66.785s29.901 66.785 66.785 66.785v0h890.429c36.884 0 66.785-29.901 66.785-66.785v0z" />
<glyph unicode="&#xe912;" glyph-name="paw-print-bullet" d="M178.749 401.316c-96.573 54.17-198.031 56.73-175.596-72.704 42.598-273.060 260.475-215.716 307.763-155.064 48.445 65.249-34.294 174.438-132.239 227.738zM763.156 715.059c-0.522-112.005 34.171-250.962 118.579-250.644 58.743 8.318 106.878 46.786 128.756 98.985l0.402 1.080c26.45 62.976 20.675 156.017-91.556 257.72-104.694 97.065-153.467 5.468-156.18-107.141zM222.935 435.415c129.679-64.614 229.54 43.315 187.331 160.174-23.818 65.812-155.935 319.406-267.622 151.654-25.977-34.057-41.62-77.212-41.62-124.021 0-83.259 49.493-154.959 120.663-187.283l1.29-0.524zM470.968 628.531c77.875-96.993 227.328-77.158 238.828 68.608 0.838 7.184 1.316 15.508 1.316 23.943 0 112.216-84.616 204.668-193.524 217.034l-1.001 0.092c-7.188 0.83-15.518 1.303-23.959 1.303-4.746 0-9.456-0.15-14.127-0.444l0.638 0.032c-200.387-9.83-52.357-255.703-8.305-310.692zM501.996 502.467c-130.427-70.543-68.209-168.366-139.213-303.514-13.254-23.056-21.071-50.694-21.071-80.157 0-32.11 9.284-62.051 25.315-87.285l-0.394 0.663c57.754-88.453 200.182-106.312 293.028-22.948 41.012 37.077 92.797 62.969 150.118 72.467l1.731 0.237c93.545 11.432 165.289 90.38 165.289 186.084 0 21.677-3.681 42.494-10.451 61.861l0.4-1.314c-23.098 57.222-74.015 98.824-135.531 108.338l-0.978 0.125c-153.027 24.832-194.898 134.881-328.346 65.444z" />
<glyph unicode="&#xe913;" glyph-name="phone" d="M943.36 219.156c-144.794 119.071-186.726 62.515-252.672-1.792-48.179-47.012-161.393 52.726-260.311 153.846-97.413 102.646-191.212 221.174-146.248 265.021 69.14 64.276 128.328 103.168 12.575 250.532-112.64 147.282-193.434 37.181-257.741-25.508-73.933-72.079-10.465-345.723 253.153-621.763 268.442-274.483 539.269-349.092 614.769-278.528 64.317 62.7 178.033 139.121 36.475 258.191z" />
<glyph unicode="&#xe914;" glyph-name="pinterest" d="M528.005 949.76c-277.842 0-425.646-178.053-425.646-372.193 0-90.040 50.35-202.271 130.888-237.926 12.227-5.509 18.883-3.164 21.606 8.192 2.406 8.622 12.984 50.125 18.125 69.704 0.476 1.536 0.75 3.302 0.75 5.131 0 4.855-1.93 9.259-5.066 12.486l0.004-0.004c-26.737 30.925-47.964 87.255-47.964 140.093 0 135.404 107.653 266.885 290.816 266.885 158.403 0 269.23-102.902 269.23-250.092 0-166.328-88.013-281.395-202.383-281.395-63.304 0-110.438 49.674-95.488 111.135 18.063 73.185 53.484 151.88 53.484 204.667 0 47.329-26.737 86.487-81.357 86.487-64.44 0-116.736-63.805-116.736-149.504-0.010-0.763-0.015-1.665-0.015-2.567 0-32.115 7.104-62.57 19.826-89.881l-0.549 1.312s-63.683-257.536-75.561-305.633c-20.019-81.418 2.724-213.248 4.71-224.614 0.356-3.384 3.194-5.998 6.642-5.998 2.287 0 4.305 1.15 5.509 2.903l0.015 0.023c6.277 8.192 83.323 118.17 104.929 197.632 7.834 28.918 40.090 146.33 40.090 146.33 21.228-38.339 82.493-70.451 147.763-70.451 194.14 0 334.428 170.639 334.428 382.392-0.696 203.008-174.479 354.888-398.049 354.888z" />
<glyph unicode="&#xe915;" glyph-name="pipe" d="M542.003 237.998c0.006 0 0.013 0 0.020 0 16.559 0 29.983 13.424 29.983 29.983 0 0.007 0 0.014 0 0.022v-0.001 359.997c0 0.006 0 0.013 0 0.020 0 16.559-13.424 29.983-29.983 29.983-0.007 0-0.014 0-0.022 0h-59.995c-0.006 0-0.013 0-0.020 0-16.559 0-29.983-13.424-29.983-29.983 0-0.007 0-0.014 0-0.022v0.001-359.997c0-0.006 0-0.013 0-0.020 0-16.559 13.424-29.983 29.983-29.983 0.007 0 0.014 0 0.022 0h-0.001zM993.997 56.003h-361.994c-0.006 0-0.013 0-0.020 0-16.559 0-29.983-13.424-29.983-29.983 0-0.007 0-0.014 0-0.022v0.001-59.996c0-0.006 0-0.013 0-0.020 0-16.559 13.424-29.983 29.983-29.983 0.007 0 0.014 0 0.022 0h362.003c0.006 0 0.013 0 0.020 0 16.559 0 29.983 13.424 29.983 29.983 0 0.007 0 0.014 0 0.022v-0.001 59.996c0 0.006 0 0.013 0 0.020 0 16.559-13.424 29.983-29.983 29.983-0.011 0-0.022 0-0.032 0h0.002zM391.997 960h-361.994c-0.006 0-0.013 0-0.020 0-16.559 0-29.983-13.424-29.983-29.983 0-0.007 0-0.014 0-0.022v0.001-59.996c0-0.006 0-0.013 0-0.020 0-16.559 13.424-29.983 29.983-29.983 0.007 0 0.014 0 0.022 0h361.993c0.006 0 0.013 0 0.020 0 16.559 0 29.983 13.424 29.983 29.983 0 0.007 0 0.014 0 0.022v-0.001 59.996c0 0.006 0 0.013 0 0.020 0 16.559-13.424 29.983-29.983 29.983-0.007 0-0.014 0-0.022 0h0.001zM59.996 780.001v-152.003c1.19-182.475 149.366-329.946 331.997-329.994h0.004v323.41c-18.377 16.399-29.917 40.123-30.003 66.545v92.042zM964.004 116.009v152.003c-1.19 182.475-149.366 329.946-331.997 329.994h-0.004v-323.41c18.376-16.399 29.916-40.123 30.003-66.544v-92.012z" />
<glyph unicode="&#xe916;" glyph-name="plus-circle" d="M512 881.234c-239.266-0.003-433.228-193.967-433.228-433.234 0-119.633 48.49-227.94 126.888-306.34v0c78.528-79.183 187.364-128.204 307.65-128.204 239.268 0 433.234 193.965 433.234 433.234 0 120.286-49.021 229.122-128.175 307.621l-0.029 0.029c-77.969 78.385-185.904 126.896-305.17 126.896-0.411 0-0.823-0.001-1.234-0.002h0.064zM512 960c282.77 0 512-229.23 512-512s-229.23-512-512-512c-282.77 0-512 229.23-512 512v0c0 282.77 229.23 512 512 512v0zM477.676 180.163v223.355h-223.191c-21.717 0-39.322 17.605-39.322 39.322s17.605 39.322 39.322 39.322v0h223.232v223.283c0.706 21.231 18.086 38.174 39.424 38.174s38.718-16.943 39.422-38.109l0.002-0.065v-223.232h223.396c21.717 0 39.322-17.605 39.322-39.322s-17.605-39.322-39.322-39.322v0h-223.396v-223.406c-0.706-21.231-18.086-38.174-39.424-38.174s-38.718 16.943-39.422 38.109l-0.002 0.065z" />
<glyph unicode="&#xe917;" glyph-name="plus" d="M445.204 2.796v378.45h-378.409c-36.879 0-66.775 29.896-66.775 66.775s29.896 66.775 66.775 66.775h378.409v378.409c0 36.879 29.896 66.775 66.775 66.775s66.775-29.896 66.775-66.775v-378.409h378.45c36.879 0 66.775-29.896 66.775-66.775s-29.896-66.775-66.775-66.775h-378.45v-378.45c0-36.879-29.896-66.775-66.775-66.775s-66.775 29.896-66.775 66.775v0z" />
<glyph unicode="&#xe918;" glyph-name="repair" d="M984.003 665.999c-22.090 0-39.997-17.907-39.997-39.997v0-19.999h-864.010v19.999c0 22.090-17.907 39.997-39.997 39.997s-39.997-17.907-39.997-39.997v0-359.997c0-22.090 17.907-39.997 39.997-39.997s39.997 17.907 39.997 39.997v0 19.999h600.003c22.090 0 39.997 17.907 39.997 39.997s-17.907 39.997-39.997 39.997h-195.43l160 160h299.428v-160h-64c-22.090 0-39.997-17.907-39.997-39.997s17.907-39.997 39.997-39.997h64v-19.999c0-22.093 17.91-40.003 40.003-40.003s40.003 17.91 40.003 40.003v0 359.997c0 22.090-17.907 39.997-39.997 39.997v0zM371.436 365.967h-291.441v160.031h451.461zM472.003 919.951c0 0.015 0 0.033 0 0.051 0 22.090 17.907 39.997 39.997 39.997s39.997-17.907 39.997-39.997c0-22.090-17.907-39.997-39.997-39.997v0c-22.090 0-39.997 17.907-39.997 39.997v0zM472.003 779.95c0 0.015 0 0.033 0 0.051 0 22.090 17.907 39.997 39.997 39.997s39.997-17.907 39.997-39.997c0-22.090-17.907-39.997-39.997-39.997v0c-22.090 0-39.997 17.907-39.997 39.997v0zM609.997 760.003c0 22.090 17.907 39.997 39.997 39.997s39.997-17.907 39.997-39.997c0-22.090-17.907-39.997-39.997-39.997v0c-22.090 0-39.997 17.907-39.997 39.997v0zM667.996 888.003c0 22.090 17.907 39.997 39.997 39.997s39.997-17.907 39.997-39.997c0-22.090-17.907-39.997-39.997-39.997v0c-22.090 0-39.997 17.907-39.997 39.997v0zM275.999 888.003c0 22.090 17.907 39.997 39.997 39.997s39.997-17.907 39.997-39.997c0-22.090-17.907-39.997-39.997-39.997v0c-22.090 0-39.997 17.907-39.997 39.997v0zM373.996 800c22.090 0 39.997-17.907 39.997-39.997s-17.907-39.997-39.997-39.997c-22.090 0-39.997 17.907-39.997 39.997v0c0 22.090 17.907 39.997 39.997 39.997v0zM551.997-24.003c-0.006-22.086-17.911-39.987-39.997-39.987-22.090 0-39.997 17.907-39.997 39.997s17.907 39.997 39.997 39.997v0c22.090 0 39.997-17.907 39.997-39.997 0-0.004 0-0.007 0-0.011v0.001zM551.997 115.999c0-22.090-17.907-39.997-39.997-39.997s-39.997 17.907-39.997 39.997c0 22.090 17.907 39.997 39.997 39.997v0c22.090 0 39.997-17.907 39.997-39.997v0zM649.994 96c-22.090 0-39.997 17.907-39.997 39.997s17.907 39.997 39.997 39.997c22.090 0 39.997-17.907 39.997-39.997v0c0-22.086-17.902-39.992-39.987-39.997h-0.001zM747.991 7.997c0-22.090-17.907-39.997-39.997-39.997s-39.997 17.907-39.997 39.997c0 22.090 17.907 39.997 39.997 39.997v0c0.003 0 0.007 0 0.010 0 22.090 0 39.997-17.907 39.997-39.997v0zM355.994 7.997c0-22.090-17.907-39.997-39.997-39.997s-39.997 17.907-39.997 39.997c0 22.090 17.907 39.997 39.997 39.997v0c0.003 0 0.007 0 0.010 0 22.090 0 39.997-17.907 39.997-39.997v0zM413.993 135.997c0-22.090-17.907-39.997-39.997-39.997s-39.997 17.907-39.997 39.997c0 22.090 17.907 39.997 39.997 39.997v0c0.003 0 0.007 0 0.010 0 22.090 0 39.997-17.907 39.997-39.997v0z" />
<glyph unicode="&#xe919;" glyph-name="right-angle" d="M236.39-34.806c-17.981 18.062-29.097 42.971-29.097 70.477s11.116 52.415 29.1 70.481l-0.004-0.004 340.398 340.746-340.398 340.562c-19.366 18.233-31.425 44.039-31.425 72.661 0 55.072 44.645 99.717 99.717 99.717 28.623 0 54.429-12.059 72.614-31.374l0.047-0.051 411.228-411.044c17.981-18.062 29.097-42.971 29.097-70.477s-11.116-52.415-29.1-70.481l-411.050-411.214c-18.071-18.033-43.015-29.183-70.564-29.183s-52.493 11.151-70.565 29.185l0.002-0.002z" />
<glyph unicode="&#xe91a;" glyph-name="right-arrow-thick" d="M1005.302 479.816l-319.683 254.423c-8.571 6.678-19.492 10.706-31.353 10.706-27.985 0-50.733-22.425-51.252-50.286l-0.001-0.049v-85.084c0-27.259-18.176-51.2-45.435-51.2h-508.017c-0.522 0.020-1.135 0.032-1.751 0.032-26.405 0-47.811-21.406-47.811-47.811 0-0.062 0-0.123 0-0.185v0.009-133.816c0.381-27.218 22.344-49.181 49.525-49.561h508.053c25.162-0.051 45.54-20.46 45.54-45.629 0-1.092-0.038-2.175-0.114-3.247l0.008 0.144v-85.084c0.696-27.465 23.125-49.464 50.693-49.464 11.764 0 22.592 4.006 31.195 10.728l-0.112-0.084 318.853 247.808c12.381 8.881 20.352 23.231 20.352 39.442 0 15.484-7.272 29.27-18.587 38.128l-0.106 0.080z" />
<glyph unicode="&#xe91b;" glyph-name="search" d="M1006.019 39.588l-196.803 196.792c57.64 75.087 92.37 170.389 92.37 273.802 0 249.624-202.36 451.983-451.983 451.983s-451.983-202.36-451.983-451.983c0-249.624 202.36-451.983 451.983-451.983 103.413 0 198.715 34.73 274.877 93.163l-1.075-0.792 196.803-196.803c10.981-10.981 26.15-17.772 42.906-17.772 33.511 0 60.678 27.166 60.678 60.678 0 16.756-6.792 31.925-17.772 42.906v0zM217.672 276.132c-59.603 59.627-96.467 141.989-96.467 232.96 0 181.991 147.533 329.523 329.523 329.523s329.523-147.533 329.523-329.523c0-181.991-147.533-329.523-329.523-329.523-0.016 0-0.032 0-0.047 0h0.002c-90.989 0.050-173.356 36.924-233.014 96.525l0.003-0.003z" />
<glyph unicode="&#xe91c;" glyph-name="snowflake" d="M926.249 323.082c-3.542 12.91-15.172 22.238-28.981 22.238-2.76 0-5.433-0.373-7.971-1.070l0.211 0.049-96.317-25.805-52.603 30.372 57.59 21.258c11.555 4.351 19.627 15.313 19.627 28.16 0 16.577-13.438 30.015-30.015 30.015-3.73 0-7.301-0.68-10.595-1.924l0.207 0.068-104.448-38.523-44.882 25.907v68.383l44.882 25.907 104.448-38.523c3.088-1.175 6.659-1.855 10.388-1.855 16.577 0 30.015 13.438 30.015 30.015 0 12.847-8.071 23.809-19.42 28.092l-0.207 0.068-57.59 21.258 52.603 30.372 96.317-25.805c2.328-0.648 5-1.021 7.76-1.021 13.809 0 25.439 9.329 28.932 22.028l0.049 0.211 29.030 108.329c0.649 2.328 1.022 5.002 1.022 7.763 0 13.805-9.324 25.433-22.018 28.929l-0.211 0.049-108.329 28.989c-2.328 0.648-5 1.021-7.76 1.021-13.809 0-25.439-9.329-28.932-22.028l-0.049-0.211-25.815-96.317-52.603-30.372 10.394 60.508c0.315 1.633 0.496 3.512 0.496 5.433 0 16.57-13.433 30.003-30.003 30.003-14.902 0-27.266-10.864-29.605-25.104l-0.024-0.174-18.831-109.691-44.882-25.907-59.249 34.212v51.814l85.565 71.148c6.475 5.537 10.553 13.715 10.553 22.844 0 16.57-13.433 30.003-30.003 30.003-7.197 0-13.803-2.534-18.972-6.759l0.054 0.043-47.196-39.25v60.744l70.513 70.513c5.43 5.428 8.789 12.928 8.789 21.212s-3.359 15.784-8.789 21.212l-79.309 79.299c-5.429 5.428-12.929 8.784-21.212 8.784s-15.783-3.357-21.212-8.784l-79.299-79.268c-5.428-5.429-8.784-12.929-8.784-21.212s3.357-15.783 8.784-21.212l70.513-70.513v-60.744l-47.206 39.25c-5.087 4.098-11.627 6.578-18.747 6.578-16.57 0-30.003-13.433-30.003-30.003 0-9.055 4.011-17.173 10.354-22.675l0.037-0.032 85.565-71.148v-51.814l-59.259-34.222-44.872 25.907-18.831 109.66c-2.66 14.071-14.858 24.571-29.507 24.571-16.57 0-30.003-13.433-30.003-30.003 0-1.668 0.136-3.305 0.398-4.899l-0.024 0.174 10.394-60.508-52.603 30.372-25.815 96.317c-3.539 12.914-15.171 22.248-28.984 22.248-2.759 0-5.431-0.372-7.968-1.070l0.211 0.049-108.329-29.030c-12.91-3.542-22.238-15.172-22.238-28.981 0-2.76 0.373-5.433 1.070-7.971l-0.049 0.211 29.030-108.308c3.542-12.91 15.172-22.238 28.981-22.238 2.76 0 5.433 0.373 7.971 1.070l-0.211-0.049 96.317 25.805 52.603-30.372-57.59-21.258c-11.555-4.351-19.627-15.313-19.627-28.16 0-16.577 13.438-30.015 30.015-30.015 3.73 0 7.301 0.68 10.595 1.924l-0.207-0.068 104.448 38.523 44.882-25.907v-68.413l-44.882-25.907-104.448 38.523c-3.088 1.175-6.659 1.855-10.388 1.855-16.577 0-30.015-13.438-30.015-30.015 0-12.847 8.071-23.809 19.42-28.092l0.207-0.068 57.59-21.258-52.603-30.372-96.317 25.805c-2.331 0.65-5.009 1.024-7.773 1.024-13.791 0-25.409-9.305-28.918-21.98l-0.050-0.211-29.020-108.308c-0.649-2.328-1.022-5.002-1.022-7.763 0-13.805 9.324-25.433 22.018-28.929l0.211-0.049 108.329-29.030c2.328-0.648 5-1.021 7.76-1.021 13.809 0 25.439 9.329 28.932 22.028l0.049 0.211 25.815 96.317 52.603 30.372-10.394-60.508c-0.275-1.525-0.432-3.28-0.432-5.071 0-14.776 10.682-27.058 24.745-29.544l0.181-0.026c1.538-0.278 3.31-0.439 5.118-0.44h0.002c14.759 0.024 27.017 10.696 29.506 24.743l0.027 0.181 18.821 109.681 44.872 25.907 59.259-34.222v-51.814l-85.565-71.148c-6.887-5.545-11.256-13.975-11.256-23.425 0-16.57 13.433-30.003 30.003-30.003 7.515 0 14.385 2.763 19.649 7.329l-0.037-0.032 47.206 39.25v-60.744l-70.513-70.513c-5.428-5.429-8.784-12.929-8.784-21.212s3.357-15.783 8.784-21.212l79.299-79.299c5.428-5.43 12.928-8.789 21.212-8.789s15.784 3.359 21.212 8.789l79.299 79.288c5.43 5.428 8.789 12.928 8.789 21.212s-3.359 15.784-8.789 21.212l-70.513 70.513v60.754l47.206-39.25c5.087-4.098 11.627-6.578 18.747-6.578 16.57 0 30.003 13.433 30.003 30.003 0 9.055-4.011 17.173-10.354 22.675l-0.037 0.032-85.565 71.148v51.814l59.31 34.222 44.882-25.907 18.831-109.681c2.66-14.071 14.858-24.571 29.507-24.571 16.57 0 30.003 13.433 30.003 30.003 0 1.668-0.136 3.305-0.398 4.899l0.024-0.174-10.394 60.508 52.603-30.372 25.815-96.317c3.542-12.91 15.172-22.238 28.981-22.238 2.76 0 5.433 0.373 7.971 1.070l-0.211-0.049 108.257 29.020c12.905 3.546 22.229 15.173 22.229 28.978 0 2.761-0.373 5.434-1.071 7.973l0.049-0.211z" />
<glyph unicode="&#xe91d;" glyph-name="star" d="M1013.125 526.95l-224.389-218.737 52.992-308.941c0.328-1.827 0.516-3.929 0.516-6.076 0-19.89-16.124-36.014-36.014-36.014-6.116 0-11.876 1.524-16.92 4.214l0.194-0.094-277.504 145.859-277.371-145.818c-4.847-2.59-10.602-4.111-16.713-4.111-19.896 0-36.024 16.129-36.024 36.024 0 2.14 0.187 4.236 0.544 6.273l-0.031-0.216 52.992 308.941-224.512 218.696c-6.702 6.55-10.858 15.68-10.858 25.781 0 18.071 13.302 33.035 30.649 35.635l0.198 0.024 310.129 45.056 138.691 281.037c6.648 11.12 18.624 18.451 32.312 18.451s25.665-7.33 32.218-18.28l0.095-0.171 138.691-281.057 310.129-45.056c17.545-2.624 30.847-17.588 30.847-35.659 0-10.101-4.156-19.231-10.852-25.774l-0.007-0.007z" />
<glyph unicode="&#xe91e;" glyph-name="text-bubble" d="M892.764 908.79h-761.498c-72.223 0-131.267-65.608-131.267-145.766v-456.704c0-73.431 49.623-134.492 113.449-144.241l-34.703-171.581 243.855 170.076h570.163c72.192 0 131.267 65.536 131.267 145.736v456.704c0.010 80.169-59.075 145.777-131.267 145.777zM688.067 346.071h-509.276v67.441h509.276zM882.504 503.675h-703.713v67.451h703.703zM882.504 661.309h-703.713v67.451h703.703z" />
<glyph unicode="&#xe91f;" glyph-name="twitter" d="M1020.334 760.73c-35.066-15.736-75.748-27.346-118.353-32.807l-2.172-0.227c43.36 26.042 75.931 66.264 91.6 114.139l0.417 1.471c-38.196-23.046-82.653-40.613-130.011-50.175l-2.679-0.452c-38.26 40.757-92.479 66.146-152.627 66.146-115.517 0-209.162-93.645-209.162-209.162 0-0.009 0-0.018 0-0.027v0.001c-0.007-0.661-0.011-1.443-0.011-2.225 0-16.109 1.769-31.805 5.122-46.905l-0.267 1.432c-174.332 8.825-327.675 91.776-430.253 217.719l-0.851 1.079c-17.992-30.254-28.626-66.704-28.626-105.639 0-72.186 36.555-135.834 92.164-173.442l0.739-0.471c-34.837 0.947-67.275 10.375-95.585 26.28l1.039-0.536v-2.294c0.122-100.89 71.324-185.114 166.213-205.292l1.375-0.245c-15.956-4.374-34.277-6.888-53.184-6.888-0.57 0-1.139 0.002-1.707 0.007l0.087-0.001c-0.973-0.018-2.121-0.029-3.272-0.029-12.856 0-25.405 1.312-37.522 3.809l1.195-0.206c27.843-83.653 104.379-143.343 195.186-145.71l0.275-0.006c-70.606-55.621-160.834-89.211-258.906-89.211-0.159 0-0.318 0-0.477 0h0.025c-0.83-0.006-1.811-0.010-2.793-0.010-16.675 0-33.107 1.042-49.234 3.064l1.923-0.197c90.121-58.861 200.463-93.873 318.983-93.873 0.671 0 1.342 0.001 2.012 0.003h-0.105c384.922 0 595.364 318.853 595.364 595.241 0 9.216-0.317 18.176-0.768 27.044 41.419 29.871 76.236 65.881 103.899 107.095l0.948 1.501z" />
<glyph unicode="&#xe920;" glyph-name="up-angle" d="M29.184 173.937c18.062-17.981 42.971-29.097 70.477-29.097s52.415 11.116 70.481 29.1l-0.004-0.004 340.746 340.398 340.572-340.398c18.25-19.504 44.148-31.658 72.884-31.658 55.078 0 99.727 44.649 99.727 99.727 0 28.736-12.154 54.633-31.602 72.832l-0.056 0.052-411.013 411.228c-18.062 17.981-42.971 29.097-70.477 29.097s-52.415-11.116-70.481-29.1l-411.255-411.091c-18.033-18.071-29.183-43.015-29.183-70.564s11.151-52.493 29.185-70.565l-0.002 0.002z" />
<glyph unicode="&#xe921;" glyph-name="up-arrow" d="M481.761 946.412l-324.803-324.813c-8.397-8.397-13.59-19.996-13.59-32.809 0-25.625 20.773-46.399 46.399-46.399 12.813 0 24.412 5.193 32.809 13.59l245.596 245.606v-816.015c0-25.627 20.775-46.403 46.403-46.403s46.403 20.775 46.403 46.403v816.015l245.596-245.596c8.397-8.397 19.996-13.59 32.809-13.59 25.625 0 46.399 20.773 46.399 46.399 0 12.813-5.193 24.412-13.59 32.809l-324.813 324.803c-8.396 8.394-19.994 13.585-32.804 13.585s-24.408-5.192-32.804-13.586v0z" />
<glyph unicode="&#xe922;" glyph-name="water-drops" d="M974.397 678.001c-238.5 372.193-133.028 371.978-347.3 17.664-12.81-18.883-50.473-85.914-34.345-150.661 83.896-322.253 529.92-132.526 381.645 132.997zM723.261 312.996c-158.208 41.656-250.276 221.614-184.791 369.418-218.604 348.334-150.671 343.245-280.361 126.269-152.32-280.812-263.649-407.327-246.036-557.148 51.487-461.281 752.66-396.288 711.188 61.46z" />
<glyph unicode="&#xe923;" glyph-name="wind1" d="M810.107 878.090c-50.866-0.064-97.575-17.812-134.321-47.425l0.412 0.321c-7.096-5.541-11.615-14.097-11.615-23.708 0-16.57 13.433-30.003 30.003-30.003 7.312 0 14.014 2.616 19.219 6.963l-0.048-0.039c26.123 21.108 59.739 33.884 96.339 33.884 84.995 0 153.897-68.902 153.897-153.897 0-84.992-68.897-153.892-153.887-153.897h-564.102c-16.33-0.311-29.449-13.623-29.449-29.998s13.119-29.687 29.42-29.998h564.13c118.133 0 213.898 95.766 213.898 213.898s-95.766 213.898-213.898 213.898v0zM188.529 570.092h320.512c0.165-0.003 0.359-0.005 0.554-0.005 16.57 0 30.003 13.433 30.003 30.003s-13.433 30.003-30.003 30.003c-0.195 0-0.389-0.002-0.583-0.006h-320.483c-0.165 0.003-0.359 0.005-0.554 0.005-16.57 0-30.003-13.433-30.003-30.003s13.433-30.003 30.003-30.003c0.195 0 0.389 0.002 0.583 0.006h-0.029zM500.593 390.093h-470.589c-16.33-0.311-29.449-13.623-29.449-29.998s13.119-29.687 29.42-29.998h470.618c0 0 0.001 0 0.001 0 68.159 0 123.412-55.254 123.412-123.412s-55.254-123.412-123.412-123.412c-29.353 0-56.312 10.248-77.496 27.36l0.234-0.183c-5.023 3.926-11.429 6.296-18.389 6.296-16.57 0-30.003-13.433-30.003-30.003 0-9.258 4.193-17.537 10.784-23.040l0.048-0.039c31.133-25.158 71.198-40.387 114.819-40.387 101.294 0 183.409 82.115 183.409 183.409s-82.114 183.408-183.407 183.409v0zM30.003 570.092h40.468c0.165-0.003 0.359-0.005 0.554-0.005 16.57 0 30.003 13.433 30.003 30.003s-13.433 30.003-30.003 30.003c-0.195 0-0.389-0.002-0.583-0.006h-40.439c-0.165 0.003-0.359 0.005-0.554 0.005-16.57 0-30.003-13.433-30.003-30.003s13.433-30.003 30.003-30.003c0.195 0 0.389 0.002 0.583 0.006h-0.029zM392.008 240.671c0 16.57-13.433 30.003-30.003 30.003v0h-179.999c-16.33-0.311-29.449-13.623-29.449-29.998s13.119-29.687 29.42-29.998h180.028c16.567 0 29.997 13.427 30.003 29.992v0.001z" />
<glyph unicode="&#xe924;" glyph-name="yelp" d="M474.307 285.041c-18.842 0-39.219-11.264-60.559-33.352l-128-132.844c-17.336-14.883-28.249-36.823-28.249-61.312 0-36.154 23.787-66.753 56.564-77l0.571-0.154 86.753-35.932c11.749-5.178 25.433-8.269 39.818-8.447l0.067-0.001c45.251 0 77.517 35.338 78.459 85.924l3.441 184.422c0.563 30.474-5.806 52.705-18.944 66.099-7.498 7.771-18.004 12.596-29.637 12.596-0.1 0-0.2 0-0.299-0.001h0.015zM467.845 953.825c-9.378-0.039-18.462-1.22-27.144-3.412l0.776 0.166-123.699-29.921c-29.626-5.977-53.715-25.485-65.892-51.655l-0.237-0.569c-4.136-10.104-6.538-21.83-6.538-34.117 0-18.473 5.427-35.678 14.774-50.109l-0.219 0.36 180.603-310.876c18.104-31.15 36.516-47.104 54.723-47.35h0.44c0.009 0 0.020 0 0.031 0 2.165 0 4.275 0.231 6.309 0.67l-0.196-0.035c21.135 4.424 32.952 27.986 35.144 70.021l18.647 359.076c0.212 2.381 0.332 5.151 0.332 7.949 0 24.548-9.288 46.927-24.542 63.814l0.074-0.083c-15.649 16.099-37.51 26.087-61.704 26.087-0.591 0-1.181-0.006-1.77-0.018l0.088 0.001zM834.222 250.511l-174.316 60.303c-12.398 4.737-26.731 7.664-41.692 8.075l-0.179 0.004c-1.299 0.127-2.808 0.199-4.335 0.199-16.567 0-31.144-8.521-39.587-21.42l-0.111-0.18c-11.069-18.432-7.967-44.974 8.98-76.8l86.794-162.765c16.845-31.59 43.663-49.705 73.574-49.705v0c27.255 1.078 51.236 14.22 66.884 34.201l0.147 0.195 61 71.424c15.22 14.692 24.67 35.273 24.67 58.062 0 37.858-26.082 69.625-61.257 78.311l-0.554 0.116zM904.397 533.268l-49.080 80.077c-17.664 28.815-43.94 45.343-72.1 45.343-28.769-1.142-53.841-15.996-68.987-38.17l-0.194-0.301-111.165-147.18c-13.076-17.306-33.004-50.36-19.579-77.332 4.884-9.81 18.432-26.266 54.446-26.276v0c9.604 0.084 18.934 1.023 27.986 2.745l-0.973-0.154 181.627 32.256c41.731 3.387 74.315 38.089 74.315 80.401 0 18.35-6.128 35.268-16.45 48.82l0.144-0.197zM443.392 358.656c1.864 23.634-16.763 46.203-52.429 63.549l-165.888 80.65c-12.927 6.703-28.186 10.733-44.363 10.976l-0.078 0.001c-43.008 0-74.506-32.645-78.326-81.234l-7.363-93.624c-0.413-3.246-0.649-7.002-0.649-10.813 0-22.516 8.229-43.11 21.843-58.938l-0.1 0.119c14.041-14.754 33.825-23.93 55.753-23.93 0.606 0 1.211 0.007 1.814 0.021l-0.090-0.002c11.341 0.094 22.227 1.903 32.455 5.18l-0.772-0.214 176.466 53.719c37.939 11.52 59.853 30.894 61.727 54.538z" />
<glyph unicode="&#xe925;" glyph-name="air-purifier" d="M233.206 279.050c0 33.203-26.916 60.119-60.119 60.119s-60.119-26.916-60.119-60.119c0-33.203 26.916-60.119 60.119-60.119v0c33.186 0.041 60.078 26.933 60.119 60.115v0.004zM153.047 279.050c0 11.068 8.972 20.040 20.040 20.040s20.040-8.972 20.040-20.040c0-11.068-8.972-20.040-20.040-20.040v0c-11.063 0.012-20.028 8.977-20.040 20.039v0.001zM324.372 509.368c33.203 0 60.119 26.916 60.119 60.119s-26.916 60.119-60.119 60.119c-33.203 0-60.119-26.916-60.119-60.119v0c0.041-33.186 26.933-60.078 60.115-60.119h0.004zM324.372 589.527c11.068 0 20.040-8.972 20.040-20.040s-8.972-20.040-20.040-20.040c-11.068 0-20.040 8.972-20.040 20.040v0c0.012 11.063 8.977 20.028 20.039 20.040h0.001zM775.987 328.428c3.538-1.933 7.751-3.069 12.229-3.069 5.367 0 10.352 1.632 14.487 4.428l-0.091-0.058 137.626 91.904c8.538 5.779 14.077 15.429 14.077 26.373s-5.538 20.595-13.965 26.302l-0.112 0.071-137.626 91.894c-4.045 2.733-9.031 4.363-14.397 4.363-14.322 0-25.932-11.607-25.938-25.928v-22.191h-189.327v154.010h189.338v-16.384c0-0.003 0-0.006 0-0.009 0-14.319 11.608-25.928 25.928-25.928 5.371 0 10.361 1.633 14.499 4.43l-0.092-0.058 137.626 91.904c8.538 5.779 14.077 15.429 14.077 26.373s-5.538 20.595-13.965 26.302l-0.112 0.071-137.626 91.904c-4.045 2.733-9.031 4.363-14.397 4.363-14.322 0-25.932-11.607-25.938-25.928v-22.191h-189.338v68.506c0 33.203-26.916 60.119-60.119 60.119s-60.119-26.916-60.119-60.119v0-115.19c-31.275-1.735-60.379-9.28-86.83-21.57l1.46 0.609c-24.972-11.75-54.237-18.609-85.104-18.609-1.8 0-3.596 0.023-5.385 0.070l0.265-0.005c-1.527-0.041-3.324-0.064-5.127-0.064-30.865 0-60.128 6.859-86.348 19.135l1.25-0.526c-29.245 13.625-63.488 21.574-99.589 21.574-2.047 0-4.089-0.026-6.124-0.076l0.302 0.006c-11.068 0-20.040-8.972-20.040-20.040s8.972-20.040 20.040-20.040v0c1.527 0.041 3.324 0.064 5.127 0.064 30.865 0 60.128-6.859 86.348-19.135l-1.25 0.526c29.245-13.625 63.488-21.574 99.589-21.574 2.047 0 4.089 0.026 6.124 0.076l-0.302-0.006c1.737-0.045 3.781-0.071 5.832-0.071 36.101 0 70.344 7.949 101.077 22.193l-1.488-0.619c20.519 9.664 44.394 16.066 69.546 17.843l0.639 0.036v-257.024c-31.275-1.735-60.379-9.28-86.83-21.57l1.46 0.609c-24.948-11.726-54.183-18.57-85.016-18.57-1.835 0-3.664 0.024-5.488 0.072l0.269-0.006c-1.527-0.041-3.324-0.064-5.127-0.064-30.865 0-60.128 6.859-86.348 19.135l1.25-0.526c-29.245 13.625-63.488 21.574-99.589 21.574-2.047 0-4.089-0.026-6.124-0.076l0.302 0.006c-11.068 0-20.040-8.972-20.040-20.040s8.972-20.040 20.040-20.040v0c1.527 0.041 3.324 0.064 5.127 0.064 30.865 0 60.128-6.859 86.348-19.135l-1.25 0.526c29.245-13.625 63.488-21.574 99.589-21.574 2.047 0 4.089 0.026 6.124 0.076l-0.302-0.006c1.737-0.045 3.781-0.071 5.832-0.071 36.101 0 70.344 7.949 101.077 22.193l-1.488-0.619c20.519 9.664 44.394 16.066 69.546 17.843l0.639 0.036v-34.324c0-11.068 8.972-20.040 20.040-20.040s20.040 8.972 20.040 20.040v0 486.902c0 11.068 8.972 20.040 20.040 20.040s20.040-8.972 20.040-20.040v-903.762c0-11.068-8.972-20.040-20.040-20.040s-20.040 8.972-20.040 20.040v0 237.179c0 11.068-8.972 20.040-20.040 20.040s-20.040-8.972-20.040-20.040v0-43.008c-31.275-1.735-60.379-9.28-86.83-21.57l1.46 0.609c-24.972-11.75-54.237-18.609-85.104-18.609-1.8 0-3.596 0.023-5.385 0.070l0.265-0.005c-1.527-0.041-3.324-0.064-5.127-0.064-30.865 0-60.128 6.859-86.348 19.135l1.25-0.526c-29.245 13.625-63.488 21.574-99.589 21.574-2.047 0-4.089-0.026-6.124-0.076l0.302 0.006c-11.068 0-20.040-8.972-20.040-20.040s8.972-20.040 20.040-20.040v0c1.527 0.041 3.324 0.064 5.127 0.064 30.865 0 60.128-6.859 86.348-19.135l-1.25 0.526c29.245-13.625 63.488-21.574 99.589-21.574 2.047 0 4.089 0.026 6.124 0.076l-0.302-0.006c1.737-0.045 3.781-0.071 5.832-0.071 36.101 0 70.344 7.949 101.077 22.193l-1.488-0.619c20.519 9.664 44.394 16.066 69.546 17.843l0.639 0.036v-153.969c0-33.203 26.916-60.119 60.119-60.119s60.119 26.916 60.119 60.119v62.761h189.338v-16.384c0-0.003 0-0.006 0-0.009 0-14.319 11.608-25.928 25.928-25.928 5.371 0 10.361 1.633 14.499 4.43l-0.092-0.058 137.626 91.904c8.538 5.779 14.077 15.429 14.077 26.373s-5.538 20.595-13.965 26.302l-0.112 0.071-137.626 91.904c-4.045 2.733-9.031 4.363-14.397 4.363-14.322 0-25.932-11.607-25.938-25.928v-22.191h-189.358v153.979h189.338v-16.384c0-0.004 0-0.010 0-0.015 0-9.842 5.49-18.401 13.575-22.783l0.137-0.068zM782.316 791.276c11.068 0 20.040 8.972 20.040 20.040v0 15.759l105.206-70.257-105.196-70.226v10.004c0 11.068-8.972 20.040-20.040 20.040v0h-209.377v74.65zM782.316 173.64c11.068 0 20.040 8.972 20.040 20.040v0 15.729l105.206-70.226-105.216-70.257v10.004c0 11.068-8.972 20.040-20.040 20.040v0h-209.357v74.598zM572.948 407.788v74.65h209.377c11.068 0 20.040 8.972 20.040 20.040v15.78l105.196-70.257-105.216-70.257v10.004c0 11.068-8.972 20.040-20.040 20.040v0h-209.357zM492.79 323.133c0-11.068-8.972-20.040-20.040-20.040s-20.040 8.972-20.040 20.040c0 11.068 8.972 20.040 20.040 20.040s20.040-8.972 20.040-20.040zM373.432 345.395c0-11.068-8.972-20.040-20.040-20.040s-20.040 8.972-20.040 20.040c0 11.068 8.972 20.040 20.040 20.040s20.040-8.972 20.040-20.040zM316.006 27.781c0-11.068-8.972-20.040-20.040-20.040s-20.040 8.972-20.040 20.040c0 11.068 8.972 20.040 20.040 20.040s20.040-8.972 20.040-20.040zM187.597 657.193c0-11.068-8.972-20.040-20.040-20.040s-20.040 8.972-20.040 20.040c0 11.068 8.972 20.040 20.040 20.040s20.040-8.972 20.040-20.040zM364.093 876.657c0-11.068-8.972-20.040-20.040-20.040s-20.040 8.972-20.040 20.040c0 11.068 8.972 20.040 20.040 20.040s20.040-8.972 20.040-20.040z" />
<glyph unicode="&#xe926;" glyph-name="bill" d="M872.96 960h-720.005c-61.823-0.076-111.919-50.172-111.995-111.988v-892.013c0 0 0 0 0 0 0-11.045 8.954-19.999 19.999-19.999 5.523 0 10.522 2.239 14.141 5.858l57.856 57.856 57.856-57.856c3.62-3.617 8.62-5.853 14.141-5.853s10.521 2.237 14.142 5.854v0l57.856 57.856 57.856-57.856c3.62-3.617 8.62-5.853 14.141-5.853s10.521 2.237 14.142 5.854v0l57.856 57.856 57.856-57.856c3.62-3.617 8.62-5.853 14.141-5.853s10.521 2.237 14.142 5.854v0l57.856 57.856 57.856-57.856c3.62-3.617 8.62-5.853 14.141-5.853s10.521 2.237 14.142 5.854v0l57.856 57.856 57.856-57.856c3.619-3.619 8.619-5.858 14.141-5.858 11.045 0 19.999 8.954 19.999 19.999 0 0 0 0 0 0v0 336.005h164.004c11.045 0 19.999 8.954 19.999 19.999v0 192c0 11.045-8.954 19.999-19.999 19.999s-19.999-8.954-19.999-19.999v0-172.032h-143.974v516.035c0 39.763 32.234 71.997 71.997 71.997s71.997-32.234 71.997-71.997v0-164.004c0-11.045 8.954-19.999 19.999-19.999s19.999 8.954 19.999 19.999v164.004c-0.076 61.823-50.172 111.919-111.988 111.995h-0.007zM760.955 848.005v-843.715l-37.888 37.888c-3.62 3.617-8.62 5.853-14.141 5.853s-10.521-2.237-14.142-5.854v0l-57.856-57.856-57.856 57.856c-3.62 3.617-8.62 5.853-14.141 5.853s-10.521-2.237-14.142-5.854v0l-57.856-57.856-57.856 57.856c-3.62 3.617-8.62 5.853-14.141 5.853s-10.521-2.237-14.142-5.854v0l-57.856-57.856-57.856 57.856c-3.62 3.617-8.62 5.853-14.141 5.853s-10.521-2.237-14.142-5.854v0l-57.856-57.856-57.856 57.856c-3.62 3.617-8.62 5.853-14.141 5.853s-10.521-2.237-14.142-5.854v0l-37.888-37.888v843.715c0.047 39.744 32.253 71.951 71.993 71.997h634.352c-16.353-19.274-26.296-44.433-26.296-71.914 0-0.029 0-0.058 0-0.088v0.005zM453.663 628.439c4.296-0.4 9.291-0.628 14.339-0.628 2.682 0 5.349 0.064 8 0.192l-0.374-0.014c9.4 0 23.081 0 43.162 0.164 11.021 0.032 19.942 8.973 19.942 19.999 0 11.045-8.954 19.999-19.999 19.999-0.020 0-0.040 0-0.059 0h-0.13c-14.336-0.082-29.829-0.133-41.523-0.143v155.996c0 11.045-8.954 19.999-19.999 19.999s-19.999-8.954-19.999-19.999v-175.852c0.001-9.857 7.134-18.048 16.52-19.695l0.12-0.017zM603.29 628.439c4.296-0.4 9.291-0.628 14.339-0.628 2.682 0 5.349 0.064 8 0.192l-0.374-0.014c9.4 0 23.081 0 43.162 0.164 11.021 0.032 19.942 8.973 19.942 19.999 0 11.045-8.954 19.999-19.999 19.999-0.020 0-0.040 0-0.059 0h-0.11c-14.336-0.082-29.829-0.133-41.523-0.143v155.996c0 11.045-8.954 19.999-19.999 19.999s-19.999-8.954-19.999-19.999v-175.852c0 0 0-0.001 0-0.001 0-9.851 7.123-18.039 16.499-19.694l0.12-0.018zM369.091 627.999c11.045 0 19.999 8.954 19.999 19.999v0 176.005c0 11.045-8.954 19.999-19.999 19.999s-19.999-8.954-19.999-19.999v-176.005c0-11.045 8.954-19.999 19.999-19.999v0zM173.619 627.999h59.679c0.009 0 0.019 0 0.030 0 37.399 0 67.717 30.318 67.717 67.717 0 21.837-10.336 41.26-26.384 53.643l-0.157 0.117c6.723 9.58 10.744 21.483 10.744 34.324 0 33.248-26.953 60.201-60.201 60.201-0.015 0-0.030 0-0.046 0h-51.382c-11.045 0-19.999-8.954-19.999-19.999v0-176.005c0-11.045 8.954-19.999 19.999-19.999v0zM233.298 667.996h-39.68v55.501h39.68c15.326 0 27.75-12.424 27.75-27.75s-12.424-27.75-27.75-27.75v0zM193.618 804.004h31.386c0.136 0.003 0.295 0.005 0.455 0.005 11.186 0 20.255-9.068 20.255-20.255s-9.068-20.255-20.255-20.255c-0.16 0-0.32 0.002-0.479 0.006h-31.362zM208.21 556.001h-39.25c-11.045 0-19.999-8.954-19.999-19.999s8.954-19.999 19.999-19.999h39.25c11.045 0 19.999 8.954 19.999 19.999s-8.954 19.999-19.999 19.999v0zM284.293 536.003c0-11.045 8.954-19.999 19.999-19.999v0h364.012c11.045 0 19.999 8.954 19.999 19.999s-8.954 19.999-19.999 19.999h-364.012c-11.045 0-19.999-8.954-19.999-19.999v0zM208.21 443.996h-39.25c-11.045 0-19.999-8.954-19.999-19.999s8.954-19.999 19.999-19.999h39.25c11.045 0 19.999 8.954 19.999 19.999s-8.954 19.999-19.999 19.999v0zM420.956 443.996h-116.664c-11.045 0-19.999-8.954-19.999-19.999s8.954-19.999 19.999-19.999h116.664c11.045 0 19.999 8.954 19.999 19.999s-8.954 19.999-19.999 19.999v0zM208.21 332.001h-39.25c-11.045 0-19.999-8.954-19.999-19.999s8.954-19.999 19.999-19.999h39.25c11.045 0 19.999 8.954 19.999 19.999s-8.954 19.999-19.999 19.999v0zM420.956 332.001h-116.664c-11.045 0-19.999-8.954-19.999-19.999s8.954-19.999 19.999-19.999h116.664c11.045 0 19.999 8.954 19.999 19.999s-8.954 19.999-19.999 19.999v0zM208.21 220.006h-39.25c-11.045 0-19.999-8.954-19.999-19.999s8.954-19.999 19.999-19.999h39.25c11.045 0 19.999 8.954 19.999 19.999s-8.954 19.999-19.999 19.999v0zM420.956 220.006h-116.664c-11.045 0-19.999-8.954-19.999-19.999s8.954-19.999 19.999-19.999h116.664c11.045 0 19.999 8.954 19.999 19.999s-8.954 19.999-19.999 19.999v0zM631.276 302.367c-4.506 1.597-9.103 3.246-13.701 4.966v83.487c7.622-2.393 14.256-5.644 20.275-9.735l-0.266 0.17c3.307-2.511 7.493-4.023 12.032-4.023 11.047 0 20.003 8.956 20.003 20.003 0 6.508-3.108 12.291-7.921 15.943l-0.050 0.036c-12.503 8.857-27.293 15.422-43.277 18.721l-0.755 0.13v17.94c0 11.045-8.954 19.999-19.999 19.999s-19.999-8.954-19.999-19.999v0-17.787c-2.949-0.594-5.939-1.331-8.96-2.243-27.277-8.757-47.616-31.617-52.607-59.779l-0.068-0.463c-1.093-4.562-1.72-9.799-1.72-15.183 0-20.669 9.241-39.18 23.816-51.627l0.094-0.078c11.377-8.615 24.341-16.145 38.182-22.008l1.191-0.448v-107.817c-15.127 1.031-28.808 6.491-39.954 15.078l0.172-0.127c-3.086 2.044-6.874 3.262-10.947 3.262-11.045 0-19.999-8.954-19.999-19.999 0-6.973 3.568-13.112 8.978-16.691l0.074-0.046c17.119-12.609 38.385-20.527 61.448-21.496l0.228-0.008v-18.514c0-11.045 8.954-19.999 19.999-19.999s19.999 8.954 19.999 19.999v0 20.644c36.012 8.895 63.339 38.064 69.404 74.428l0.074 0.539c0.922 4.589 1.45 9.864 1.45 15.263 0 36.25-23.798 66.941-56.623 77.304l-0.574 0.156zM562.883 334.316c-5.326 5.231-8.627 12.508-8.627 20.556 0 2.646 0.357 5.208 1.025 7.642l-0.047-0.202c2.196 12.877 10.665 23.38 22.091 28.383l0.243 0.095v-65.915c-5.615 3.023-10.418 6.151-14.939 9.63l0.255-0.188zM647.608 216.248c-3.023-17.611-14.342-32.052-29.711-39.348l-0.323-0.138v88.064l0.379-0.133c17.725-5.093 30.474-21.16 30.474-40.205 0-2.913-0.298-5.756-0.866-8.5l0.047 0.27zM964.956 614.001c-0.001 0-0.002 0-0.004 0-11.051 0-20.009-8.958-20.009-20.009s8.958-20.009 20.009-20.009c11.051 0 20.009 8.958 20.009 20.009 0 5.527-2.241 10.53-5.864 14.152v0c-3.627 3.606-8.622 5.841-14.138 5.857h-0.003z" />
<glyph unicode="&#xe927;" glyph-name="carbon-monoxide-detector" d="M992.973 673.28h-961.946c-17.126-0.023-31.004-13.901-31.027-31.025v-144.294c0-26.015 21.089-47.104 47.104-47.104v0h17.019v-33.096c0-26.015 21.089-47.104 47.104-47.104v0h104.991l52.511-65.638c-7.569-8.318-12.204-19.423-12.204-31.611 0-25.973 21.049-47.029 47.018-47.043h416.872c25.971 0.013 47.020 21.070 47.020 47.043 0 12.188-4.635 23.293-12.238 31.649l0.034-0.038 52.521 65.638h105.062c26.015 0 47.104 21.089 47.104 47.104v0 33.137h16.978c26.015 0 47.104 21.089 47.104 47.104v144.251c-0.012 17.131-13.896 31.016-31.026 31.027h-0.001zM720.425 256.44h-416.84c-9.246 0.234-16.652 7.784-16.652 17.065s7.406 16.831 16.63 17.065h0.022c8.285 0 15.002 6.716 15.002 15.002s-6.716 15.002-15.002 15.002v0c-2.902-0.010-5.734-0.277-8.484-0.782l0.292 0.044-40.714 50.893h102.881l20.060-50.176h-9.902c-8.285 0-15.002-6.716-15.002-15.002s6.716-15.002 15.002-15.002h352.707c9.246-0.234 16.652-7.784 16.652-17.065s-7.406-16.831-16.63-17.065h-0.022zM634.143 370.729l-20.060-50.176h-87.040v50.176zM497.009 320.553h-87.040l-20.060 50.176h107.1zM728.668 319.816c-2.457 0.459-5.29 0.727-8.183 0.737h-74.044l20.060 50.176h102.871zM994.007 497.961c-0.006-9.429-7.651-17.070-17.080-17.070-0.011 0-0.022 0-0.032 0h-64.080c-8.285 0-15.002-6.716-15.002-15.002s6.716-15.002 15.002-15.002h17.070v-33.096c-0.012-9.423-7.647-17.058-17.069-17.070h-801.619c-9.421 0.012-17.054 7.648-17.060 17.070v33.107h754.555c8.285 0 15.002 6.716 15.002 15.002s-6.716 15.002-15.002 15.002h-801.587c-0.006 0-0.013 0-0.020 0-9.426 0-17.069 7.635-17.080 17.059v144.293c0 0.566 0.458 1.024 1.024 1.024v0h961.946c0.566 0 1.024-0.458 1.024-1.024v0zM512.010 609.147c-26.015 0-47.104-21.089-47.104-47.104s21.089-47.104 47.104-47.104c26.015 0 47.104 21.089 47.104 47.104v0c0 26.015-21.089 47.104-47.104 47.104v0zM512.010 545.024c-9.422 0-17.060 7.638-17.060 17.060s7.638 17.060 17.060 17.060c9.422 0 17.060-7.638 17.060-17.060v0c-0.012-9.417-7.643-17.048-17.059-17.060h-0.001z" />
<glyph unicode="&#xe928;" glyph-name="clock" d="M531.999 456.284v171.715c0 11.045-8.954 19.999-19.999 19.999s-19.999-8.954-19.999-19.999v0-179.999c0 0 0 0 0 0 0-5.522 2.238-10.522 5.857-14.141l127.263-127.222c3.619-3.619 8.619-5.858 14.141-5.858 11.045 0 19.999 8.954 19.999 19.999 0 5.523-2.238 10.522-5.858 14.141v0zM512 839.997c-216.494 0-391.997-175.503-391.997-391.997s175.503-391.997 391.997-391.997c216.494 0 391.997 175.503 391.997 391.997v0c-0.256 216.391-175.606 391.741-391.972 391.997h-0.025zM824.003 428.022h39.424c-4.8-82.868-37.687-157.243-89.188-214.553l0.285 0.322-28.232 28.232c-3.619 3.619-8.619 5.858-14.141 5.858-11.045 0-19.999-8.954-19.999-19.999 0-5.523 2.238-10.522 5.858-14.141l28.232-28.232c-56.988-51.216-131.363-84.103-213.287-88.86l-0.944-0.044v39.424c0 11.045-8.954 19.999-19.999 19.999s-19.999-8.954-19.999-19.999v0-39.424c-82.868 4.8-157.243 37.687-214.553 89.188l0.322-0.285 28.232 28.232c3.763 3.641 6.099 8.737 6.099 14.378 0 11.045-8.954 19.999-19.999 19.999-5.659 0-10.77-2.351-14.408-6.129l-28.238-28.238c-51.216 56.988-84.103 131.363-88.86 213.287l-0.044 0.944h39.424c11.045 0 19.999 8.954 19.999 19.999s-8.954 19.999-19.999 19.999h-39.424c4.8 82.868 37.687 157.243 89.188 214.553l-0.285-0.322 28.232-28.211c3.622-3.622 8.625-5.862 14.152-5.862 11.053 0 20.013 8.96 20.013 20.013 0 5.527-2.24 10.53-5.862 14.152l-28.232 28.232c56.988 51.216 131.363 84.103 213.287 88.86l0.944 0.044v-39.424c0-11.045 8.954-19.999 19.999-19.999s19.999 8.954 19.999 19.999v39.424c82.868-4.8 157.243-37.687 214.553-89.188l-0.322 0.285-28.211-28.232c-3.619-3.619-5.858-8.619-5.858-14.141 0-11.045 8.954-19.999 19.999-19.999 5.523 0 10.522 2.238 14.141 5.858l28.232 28.232c51.217-56.993 84.102-131.377 88.85-213.309l0.044-0.942h-39.424c-0.27 0.013-0.586 0.020-0.905 0.020-11.039 0-19.988-8.949-19.988-19.988s8.949-19.988 19.988-19.988c0.318 0 0.635 0.007 0.949 0.022l-0.045-0.002zM881.49 101.898c0-11.56-9.371-20.931-20.931-20.931s-20.931 9.371-20.931 20.931c0 11.56 9.371 20.931 20.931 20.931s20.931-9.371 20.931-20.931zM512-64c0.318-0.001 0.694-0.001 1.070-0.001 108.094 0 208.324 33.668 290.777 91.088l-1.665-1.098c5.261 3.656 8.661 9.669 8.661 16.476 0 11.047-8.955 20.002-20.002 20.002-4.24 0-8.171-1.319-11.406-3.569l0.066 0.043c-74.68-51.914-167.275-82.938-267.116-82.938-260.465 0-471.613 211.149-471.613 471.613s211.149 471.613 471.613 471.613c260.465 0 471.613-211.149 471.613-471.613 0-99.841-31.025-192.436-83.96-268.67l1.021 1.554c-2.277-3.204-3.641-7.195-3.641-11.505 0-11.045 8.954-19.999 19.999-19.999 6.875 0 12.94 3.469 16.54 8.753l0.045 0.069c56.473 81.143 90.225 181.777 90.225 290.294 0 282.832-229.281 512.113-512.113 512.113s-512.113-229.281-512.113-512.113c0-282.792 229.216-512.048 511.993-512.113h0.006z" />
<glyph unicode="&#xe929;" glyph-name="clogged-pipe" d="M855.634 274.586v665.498c-0.254 10.877-9.131 19.597-20.045 19.597s-19.791-8.72-20.044-19.573v-632.006c-4.537 1.040-9.747 1.636-15.097 1.636-18.998 0-36.24-7.518-48.914-19.74l0.021 0.020c-5.528-6.512-13.72-10.618-22.871-10.618s-17.343 4.105-22.835 10.574l-0.036 0.043c-12.65 12.203-29.89 19.722-48.887 19.722-5.352 0-10.564-0.597-15.574-1.727l0.471 0.089v631.982c-0.254 10.877-9.131 19.597-20.045 19.597s-19.791-8.72-20.044-19.573v-665.624c-4.424-115.057-169.349-114.975-173.732 0v665.6c-0.254 10.877-9.131 19.597-20.045 19.597s-19.791-8.72-20.044-19.573v-312.743h-173.742v312.719c-0.254 10.877-9.131 19.597-20.045 19.597s-19.791-8.72-20.044-19.573v-665.624c17.275-451.482 664.443-451.133 681.554 0v0.102zM387.932 587.264v-279.163c-4.538 1.041-9.749 1.637-15.1 1.637-18.997 0-36.238-7.518-48.911-19.741l0.021 0.020c-5.528-6.512-13.72-10.618-22.871-10.618s-17.343 4.105-22.835 10.574l-0.036 0.043c-12.648 12.204-29.888 19.723-48.883 19.723-5.353 0-10.566-0.597-15.577-1.728l0.471 0.089v279.163zM514.908-26.112c-162.61 0.169-295.020 129.232-300.571 290.513l-0.014 0.508c4.011 3.015 9.075 4.829 14.562 4.829 0.31 0 0.618-0.006 0.924-0.017l-0.044 0.001c9.097-0.257 17.203-4.294 22.839-10.589l0.027-0.030c12.454-12.242 29.547-19.799 48.404-19.799s35.95 7.557 48.414 19.809l-0.010-0.010c5.663 6.325 13.769 10.362 22.821 10.618l0.045 0.001c0.252 0.009 0.548 0.015 0.846 0.015 5.735 0 11.010-1.964 15.191-5.256l-0.052 0.040c16.384-154.87 236.841-154.757 253.123 0 4.129 3.252 9.404 5.216 15.139 5.216 0.297 0 0.594-0.005 0.888-0.016l-0.043 0.001c9.097-0.257 17.203-4.294 22.839-10.589l0.027-0.030c12.454-12.239 29.544-19.794 48.399-19.794s35.946 7.555 48.409 19.804l-0.010-0.010c5.666 6.326 13.776 10.364 22.832 10.618l0.044 0.001c0.264 0.010 0.575 0.016 0.887 0.016 5.485 0 10.547-1.814 14.618-4.874l-0.063 0.045c-5.563-161.749-137.911-290.789-300.45-291.021h-0.022zM329.789 154.491v0c-11.069-0.006-20.040-8.98-20.040-20.050 0-11.073 8.977-20.050 20.050-20.050s20.050 8.977 20.050 20.050v0c0 0.003 0 0.007 0 0.010 0 11.068-8.972 20.040-20.040 20.040-0.011 0-0.022 0-0.032 0h0.002zM481.147 121.416v0c-11.069-0.006-20.040-8.98-20.040-20.050 0-11.073 8.977-20.050 20.050-20.050s20.050 8.977 20.050 20.050v0c0 0.003 0 0.007 0 0.010 0 11.068-8.972 20.040-20.040 20.040-0.011 0-0.022 0-0.032 0h0.002zM631.491 79.319v0c-11.069-0.006-20.040-8.98-20.040-20.050 0-11.073 8.977-20.050 20.050-20.050s20.050 8.977 20.050 20.050v0c0 0.003 0 0.007 0 0.010 0 11.068-8.972 20.040-20.040 20.040-0.011 0-0.022 0-0.032 0h0.002zM696.637 207.616v0c-11.069-0.006-20.040-8.98-20.040-20.050 0-11.073 8.977-20.050 20.050-20.050s20.050 8.977 20.050 20.050v0c0 0.003 0 0.007 0 0.010 0 11.068-8.972 20.040-20.040 20.040-0.011 0-0.022 0-0.032 0h0.002z" />
<glyph unicode="&#xe92a;" glyph-name="cracked-pipe" d="M406.968 393.206c5.070 0.003 9.698 1.893 13.221 5.005l-0.021-0.019 53.248 46.787c4.178 3.684 6.799 9.048 6.799 15.024 0 2.294-0.386 4.497-1.097 6.549l0.042-0.14-18.432 54.518 43.223 37.99c4.178 3.684 6.799 9.048 6.799 15.024 0 2.294-0.386 4.497-1.097 6.549l0.042-0.14-22.723 67.144c-2.182 6.323-7.269 11.129-13.622 12.88l-0.14 0.033-115.825 31.027c-1.557 0.435-3.345 0.685-5.192 0.685-11.047 0-20.003-8.956-20.003-20.003 0-9.201 6.212-16.951 14.671-19.285l0.14-0.033 105.472-28.262 15.012-44.37-43.192-37.96c-4.178-3.684-6.799-9.048-6.799-15.024 0-2.294 0.386-4.497 1.097-6.549l-0.042 0.14 18.432-54.518-35.185-30.925-260.096 69.632 62.085 231.342c0.436 1.558 0.686 3.346 0.686 5.193 0 9.204-6.221 16.955-14.688 19.278l-0.14 0.033-91.197 24.422c-1.553 0.433-3.336 0.682-5.177 0.682-9.204 0-16.956-6.218-19.284-14.683l-0.033-0.14-73.267-273.449c-0.433-1.553-0.682-3.336-0.682-5.177 0-9.204 6.218-16.956 14.683-19.284l0.14-0.033 91.136-24.422c1.56-0.437 3.351-0.689 5.201-0.689 9.203 0 16.953 6.223 19.271 14.69l0.033 0.14 0.932 3.471 270.397-72.448c1.55-0.436 3.33-0.686 5.169-0.686 0.001 0 0.002 0 0.002 0v0zM44.493 506.604l62.925 234.813 52.511-14.070-62.915-234.813zM1023.314 497.654l-73.277 273.408c-2.352 8.618-10.111 14.849-19.324 14.849-1.835 0-3.612-0.247-5.3-0.71l0.14 0.033-91.136-24.422c-8.604-2.366-14.821-10.119-14.821-19.325 0-1.838 0.248-3.619 0.712-5.31l-0.033 0.14 0.932-3.471-270.397-72.448c-8.592-2.37-14.798-10.115-14.798-19.311 0-4.843 1.721-9.283 4.585-12.743l-0.027 0.033 38.246-46.531-11.735-50.176c-0.335-1.37-0.527-2.943-0.527-4.56 0-5.597 2.298-10.657 6.002-14.288l0.003-0.003 38.769-37.98-13.773-56.955c-0.355-1.409-0.559-3.026-0.559-4.691 0-11.034 8.945-19.978 19.978-19.978 1.834 0 3.61 0.247 5.296 0.71l-0.14-0.033 115.855 31.037c8.605 2.361 14.823 10.113 14.823 19.318 0 11.045-8.954 19.999-19.999 19.999-1.841 0-3.624-0.249-5.317-0.714l0.14 0.033-83.364-22.344 8.489 35.328c0.35 1.401 0.551 3.009 0.551 4.665 0 5.6-2.299 10.663-6.006 14.297l-0.003 0.003-38.84 38.031 11.428 48.794c0.334 1.368 0.526 2.939 0.526 4.555 0 4.838-1.718 9.275-4.577 12.733l0.027-0.034-24.812 30.188 240.415 64.41 62.024-231.311c2.355-8.62 10.116-14.851 19.333-14.851 1.865 0 3.671 0.255 5.384 0.733l-0.141-0.033 91.136 24.422c8.606 2.365 14.823 10.119 14.823 19.325 0 1.842-0.249 3.626-0.715 5.319l0.033-0.14zM926.996 492.534l-62.925 234.803 52.511 14.070 62.925-234.793zM526.776 379.392c-3.669 4.014-8.927 6.522-14.771 6.522s-11.102-2.508-14.757-6.506l-0.014-0.015q-2.345-2.57-5.12-5.591c-28.979-31.457-89.283-96.911-89.283-158.72-0.003-0.314-0.005-0.686-0.005-1.057 0-60.309 48.89-109.199 109.199-109.199s109.199 48.89 109.199 109.199c0 0.372-0.002 0.743-0.006 1.114v-0.057c0 61.778-60.293 127.222-89.283 158.72-1.874 2.017-3.604 3.881-5.161 5.591zM512 145.92c-38.198 0.047-69.151 31.003-69.192 69.198v0.004c0 40.96 41.923 91.075 69.192 121.201 27.269-30.126 69.192-80.22 69.192-121.201-0.041-38.199-30.993-69.155-69.187-69.202h-0.005zM259.758 676.178c1.646-0.488 3.537-0.769 5.494-0.769 11.046 0 20 8.954 20 20 0 9.089-6.063 16.762-14.365 19.195l-0.141 0.036c-1.711 0.53-3.679 0.835-5.718 0.835-11.045 0-19.999-8.954-19.999-19.999 0-9.177 6.182-16.911 14.609-19.264l0.141-0.034zM814.664 486.871v0c-8.607-2.36-14.827-10.113-14.827-19.318 0-11.045 8.954-19.999 19.999-19.999s19.999 8.954 19.999 19.999c0 1.834-0.247 3.61-0.709 5.297l0.033-0.14c-2.352 8.612-10.106 14.837-19.313 14.837-1.846 0-3.634-0.25-5.331-0.719l0.14 0.033z" />
<glyph unicode="&#xe92b;" glyph-name="dehumidifier" d="M825.713 32.553c-17.009-4.796-36.542-7.553-56.72-7.553-19.060 0-37.546 2.46-55.156 7.081l1.509-0.336c-1.448 0.375-3.11 0.59-4.823 0.59-11.045 0-19.999-8.954-19.999-19.999 0-9.221 6.24-16.984 14.728-19.297l0.14-0.033c19.088-5.083 41.001-8.002 63.597-8.002 23.924 0 47.083 3.273 69.055 9.394l-1.806-0.429c8.562 2.391 14.739 10.123 14.739 19.297 0 11.047-8.955 20.002-20.002 20.002-1.873 0-3.685-0.257-5.404-0.739l0.141 0.034zM979.272 313.692c11.040 0.013 19.985 8.967 19.985 20.009 0 2.873-0.606 5.605-1.696 8.074l0.050-0.128c-19.45 43.182-39.089 79.342-61.013 113.909l2.184-3.686c-3.578 5.764-9.872 9.545-17.050 9.545-11.046 0-20-8.954-20-20 0-3.868 1.098-7.48 3-10.54l-0.049 0.085c18.858-29.477 37.624-63.99 54.010-99.819l2.207-5.387c3.156-7.151 10.185-12.052 18.359-12.052 0 0 0.001 0 0.001 0v0zM784.435 667.72c-3.695 4.459-9.234 7.278-15.432 7.278-4.846 0-9.29-1.724-12.751-4.592l0.033 0.027c-1.777-1.724-3.432-3.545-4.969-5.465l-0.090-0.116c-8.438-10.383-38.789-48.128-74.936-98.181-2.369-3.246-3.79-7.314-3.79-11.715 0-11.046 8.954-20 20-20 6.645 0 12.533 3.241 16.17 8.228l0.040 0.057c24.576 34.048 46.438 62.28 60.283 79.8 13.486-17.070 34.58-44.329 58.255-76.995 3.678-5.031 9.559-8.262 16.195-8.262 11.047 0 20.002 8.955 20.002 20.002 0 4.411-1.428 8.489-3.847 11.797l0.039-0.056c-41.247 56.893-74.875 97.792-75.213 98.202zM1003.735 217.375c-1.074 0.204-2.309 0.321-3.571 0.321-9.781 0-17.923-7.019-19.665-16.294l-0.019-0.124c-7.222-38.528-23.829-72.332-47.361-100.079l0.257 0.311c-2.965-3.467-4.769-8.004-4.769-12.962 0-11.045 8.954-19.999 19.999-19.999 6.151 0 11.653 2.777 15.322 7.145l0.025 0.031c27.485 32.573 47.053 72.697 55.219 116.819l0.241 1.565c0.303 1.509 0.484 3.252 0.502 5.034v0.014c-0.366 9.239-7.219 16.773-16.111 18.192l-0.109 0.014zM694.272 335.524c-10.138 48.988-33.075 109.896-70.134 186.204-21.842 44.882-48.497 94.659-79.217 147.978-24.781 43.008-52.316 88.535-81.838 135.281-47.565 75.233-85.934 130.98-96.492 146.186-3.72 5.271-9.741 8.703-16.57 8.827h-0.019c-6.779-0.034-12.765-3.402-16.403-8.549l-0.042-0.063c-8.643-12.421-86.866-125.286-165.806-259.932-36.263-59.174-74.471-130.754-108.765-204.522l-5.739-13.754c-12.71-27.020-25.7-60.496-36.6-94.903l-1.677-6.135c-8.58-25.557-13.983-55.045-14.959-85.65l-0.012-0.489c0-0.189-0.001-0.414-0.001-0.639 0-72.795 22.346-140.371 60.553-196.242l-0.771 1.194c38.037-55.84 90.331-99.394 151.706-125.917l2.273-0.874c40.192-17.405 86.998-27.529 136.168-27.529 72.638 0 140.115 22.094 196.079 59.929l-1.238-0.789c55.64 37.677 99.146 89.439 125.908 150.234l0.883 2.25c1.032 2.332 1.632 5.053 1.632 7.913 0 8.181-4.913 15.215-11.949 18.313l-0.128 0.050c-2.31 1.035-5.006 1.638-7.843 1.638-0.018 0-0.037 0-0.055 0h0.003c-8.178-0.004-15.206-4.924-18.29-11.965l-0.050-0.128c-48.735-111.154-157.808-187.392-284.687-187.392-0.035 0-0.069 0-0.104 0h-0.086c-171.193 0-309.976 138.765-310.006 309.952v0.003c1.042 27.046 5.834 52.61 13.873 76.689l-0.561-1.937c31.928 107.725 115.272 256.205 179.548 361.677 36.567 60.15 109.466 170.906 117.146 182.272 28.877-42.506 85.76-128.287 143.565-226.304 40.52-68.741 74.342-131.482 100.536-186.481 31.744-66.683 52.316-121.999 61.041-164.454 2.016-7.125 7.516-12.621 14.495-14.597l0.148-0.036c1.59-0.502 3.418-0.792 5.315-0.792 2.999 0 5.829 0.724 8.325 2.007l-0.103-0.048c3.29 1.491 6.020 3.712 8.071 6.469l0.039 0.054c2.068 3.085 3.3 6.881 3.3 10.965 0 1.444-0.154 2.852-0.447 4.208l0.024-0.131zM284.979 655.002c0.006 0 0.014 0 0.022 0 7.48 0 14 4.108 17.427 10.191l0.052 0.1 50.002 89.999c1.588 2.803 2.524 6.156 2.524 9.728 0 11.051-8.958 20.009-20.009 20.009-7.479 0-13.999-4.103-17.433-10.181l-0.052-0.1-50.002-89.999c-1.574-2.793-2.501-6.132-2.501-9.687 0-11.037 8.937-19.987 19.969-20.009h0.002zM222.556 362.793c-1.608-2.816-2.556-6.189-2.556-9.783 0-3.858 1.092-7.461 2.985-10.516l-0.049 0.086 109.998-179.999c3.574-5.779 9.877-9.571 17.065-9.571s13.491 3.792 17.016 9.485l0.049 0.086 109.967 179.999c1.841 2.968 2.932 6.569 2.932 10.424 0 11.042-8.95 19.995-19.991 19.999h-39.998v190.003c0 11.045-8.954 19.999-19.999 19.999v0h-100.004c-11.045 0-19.999-8.954-19.999-19.999v-190.003h-39.997c-7.44-0.008-13.928-4.078-17.367-10.111l-0.052-0.098zM300.001 333.005c11.045 0 19.999 8.954 19.999 19.999v190.003h59.996v-190.003c0-11.045 8.954-19.999 19.999-19.999v0h24.34l-74.342-121.641-74.342 121.641zM697.088 241.981c0-11.045-8.954-19.999-19.999-19.999s-19.999 8.954-19.999 19.999c0 11.045 8.954 19.999 19.999 19.999s19.999-8.954 19.999-19.999z" />
<glyph unicode="&#xe92c;" glyph-name="dirty-water" d="M685.957 24.914c-50.642-30.736-111.855-48.928-177.316-48.928-190.946 0-345.741 154.781-345.764 345.722v0.002c0 92.006 43.223 201.789 128.461 326.298 2.281 3.205 3.646 7.2 3.646 11.513 0 11.045-8.954 19.999-19.999 19.999-6.918 0-13.015-3.512-16.606-8.851l-0.045-0.072c-89.876-131.297-135.444-248.678-135.444-348.897 0.038-213.022 172.734-385.695 385.761-385.695 73.046 0 141.35 20.302 199.577 55.572l-1.72-0.967c5.865 3.557 9.723 9.906 9.723 17.157 0 11.045-8.954 19.999-19.999 19.999-3.794 0-7.342-1.057-10.365-2.892l0.089 0.050zM544.645 930.304c-7.68 8.335-14.807 16.077-21.279 23.163-3.67 4.014-8.93 6.522-14.776 6.522s-11.106-2.508-14.763-6.507l-0.014-0.015c-6.451-7.076-13.568-14.797-21.228-23.112-28.908-31.386-64.891-70.441-103.178-115.589-2.952-3.464-4.748-7.991-4.748-12.938 0-11.046 8.955-20.001 20.001-20.001 6.099 0 11.561 2.73 15.229 7.035l0.023 0.028c37.755 44.524 73.431 83.251 102.093 114.36l6.584 7.168 6.636-7.168c110.060-119.47 339.077-368.056 339.077-581.499 0-0.063 0-0.138 0-0.212 0-65.403-18.188-126.557-49.782-178.682l0.865 1.537c-1.785-2.934-2.842-6.481-2.842-10.276 0-11.045 8.954-19.999 19.999-19.999 7.251 0 13.6 3.859 17.107 9.634l0.050 0.089c34.299 56.455 54.6 124.704 54.6 197.695 0 0.071 0 0.143 0 0.214v-0.011c0 229.059-236.165 485.376-349.665 608.604zM728.525 234.895h-25.928c-1.532 5.108-3.401 9.52-5.681 13.674l0.182-0.362 18.34 18.34c3.619 3.619 5.858 8.619 5.858 14.141 0 11.045-8.954 19.999-19.999 19.999-5.523 0-10.522-2.238-14.141-5.858l-18.34-18.34c-3.793 2.103-8.205 3.975-12.82 5.38l-0.492 0.129v25.928c0 11.045-8.954 19.999-19.999 19.999s-19.999-8.954-19.999-19.999v0-25.928c-5.108-1.534-9.519-3.406-13.672-5.691l0.36 0.181-18.33 18.33c-3.619 3.619-8.619 5.858-14.141 5.858-11.045 0-19.999-8.954-19.999-19.999 0-5.523 2.238-10.522 5.858-14.141l18.33-18.33c-2.102-3.793-3.975-8.204-5.38-12.819l-0.129-0.493h-25.928c-11.045 0-19.999-8.954-19.999-19.999s8.954-19.999 19.999-19.999h25.928c1.534-5.108 3.406-9.519 5.691-13.672l-0.182 0.36-18.34-18.34c-3.619-3.619-5.858-8.619-5.858-14.141 0-11.045 8.954-19.999 19.999-19.999 5.523 0 10.522 2.238 14.141 5.858l18.34 18.34c3.793-2.099 8.205-3.968 12.82-5.37l0.492-0.129v-25.928c0-11.045 8.954-19.999 19.999-19.999s19.999 8.954 19.999 19.999v25.928c5.108 1.534 9.519 3.406 13.672 5.691l-0.36-0.182 18.34-18.34c3.619-3.619 8.619-5.858 14.141-5.858 11.045 0 19.999 8.954 19.999 19.999 0 5.523-2.238 10.522-5.858 14.141l-18.34 18.34c2.102 3.793 3.974 8.204 5.38 12.819l0.129 0.493h25.928c11.045 0 19.999 8.954 19.999 19.999s-8.954 19.999-19.999 19.999v0zM665.528 214.897c0-16.57-13.433-30.003-30.003-30.003s-30.003 13.433-30.003 30.003c0 16.57 13.433 30.003 30.003 30.003v0c16.563-0.017 29.986-13.44 30.003-30.002v-0.002zM383.631 594.289c-11.045 0-19.999-8.954-19.999-19.999s8.954-19.999 19.999-19.999h20.306c1.086-3.216 2.228-5.903 3.544-8.487l-0.165 0.356-14.336-14.336c-3.619-3.619-5.858-8.619-5.858-14.141 0-11.045 8.954-19.999 19.999-19.999 5.523 0 10.522 2.238 14.141 5.858l14.336 14.336c2.228-1.152 4.915-2.294 7.689-3.247l0.441-0.132v-20.306c0-11.045 8.954-19.999 19.999-19.999s19.999 8.954 19.999 19.999v20.306c3.215 1.084 5.901 2.226 8.485 3.543l-0.354-0.164 14.336-14.336c3.619-3.619 8.619-5.858 14.141-5.858 11.045 0 19.999 8.954 19.999 19.999 0 5.523-2.238 10.522-5.858 14.141l-14.336 14.336c1.152 2.228 2.294 4.914 3.247 7.689l0.132 0.441h20.306c11.045 0 19.999 8.954 19.999 19.999s-8.954 19.999-19.999 19.999h-20.306c-1.085 3.216-2.228 5.903-3.544 8.487l0.165-0.356 14.336 14.336c3.619 3.619 5.858 8.619 5.858 14.141 0 11.045-8.954 19.999-19.999 19.999-5.523 0-10.522-2.238-14.141-5.858l-14.336-14.336c-2.228 1.152-4.915 2.294-7.689 3.247l-0.441 0.132v20.306c0 11.045-8.954 19.999-19.999 19.999s-19.999-8.954-19.999-19.999v0-20.306c-3.216-1.085-5.903-2.227-8.486-3.544l0.356 0.165-14.336 14.336c-3.619 3.619-8.619 5.858-14.141 5.858-11.045 0-19.999-8.954-19.999-19.999 0-5.523 2.238-10.522 5.858-14.141l14.336-14.336c-1.152-2.228-2.294-4.915-3.248-7.69l-0.132-0.441zM440.668 574.29c0 12.736 10.325 23.060 23.060 23.060s23.060-10.325 23.060-23.060c0-12.736-10.325-23.060-23.060-23.060v0c-12.725 0.017-23.037 10.326-23.060 23.048v0.002zM424.141 321.085c0 33.135-26.861 59.996-59.996 59.996s-59.996-26.861-59.996-59.996c0-33.135 26.861-59.996 59.996-59.996v0c33.119 0.041 59.955 26.878 59.996 59.992v0.004zM364.145 301.087c-11.045 0-19.999 8.954-19.999 19.999s8.954 19.999 19.999 19.999c11.045 0 19.999-8.954 19.999-19.999v0c-0.006-11.048-8.961-20.003-20.008-20.009h-0.001zM640.133 460.288c0-33.135 26.861-59.996 59.996-59.996s59.996 26.861 59.996 59.996c0 33.135-26.861 59.996-59.996 59.996v0c-33.119-0.041-59.955-26.878-59.996-59.992v-0.004zM700.129 480.287c11.045 0 19.999-8.954 19.999-19.999s-8.954-19.999-19.999-19.999c-11.045 0-19.999 8.954-19.999 19.999v0c0.012 11.040 8.958 19.987 19.998 19.999h0.001zM353.741 132.68c0-11.045 8.954-19.999 19.999-19.999s19.999 8.954 19.999 19.999v0c0 11.045-8.954 19.999-19.999 19.999s-19.999-8.954-19.999-19.999v0zM272.138 468.675c0-11.045 8.954-19.999 19.999-19.999s19.999 8.954 19.999 19.999v0c0 11.045-8.954 19.999-19.999 19.999s-19.999-8.954-19.999-19.999v0zM488.141 406.282c0-11.045 8.954-19.999 19.999-19.999s19.999 8.954 19.999 19.999v0c0 11.045-8.954 19.999-19.999 19.999s-19.999-8.954-19.999-19.999v0zM537.733 771.062v0c-0.012 11.036-8.961 19.978-19.999 19.978-11.045 0-19.999-8.954-19.999-19.999s8.954-19.999 19.999-19.999v0c0 0 0 0 0 0 11.045 0 19.999 8.954 19.999 19.999 0 0.014 0 0.029 0 0.043v-0.002zM640.133 632.668c-0.003 0-0.007 0-0.010 0-11.051 0-20.009-8.958-20.009-20.009s8.958-20.009 20.009-20.009c11.051 0 20.009 8.958 20.009 20.009v0c0 0.003 0 0.007 0 0.010 0 11.045-8.954 19.999-19.999 19.999v0zM327.936 711.987c11.045 0 19.999 8.954 19.999 19.999s-8.954 19.999-19.999 19.999v0c-11.045 0-19.999-8.954-19.999-19.999s8.954-19.999 19.999-19.999v0zM767.212 83.118v0c-11.036-0.012-19.978-8.961-19.978-19.999 0-11.045 8.954-19.999 19.999-19.999s19.999 8.954 19.999 19.999v0c0 0 0 0 0 0 0 11.045-8.954 19.999-19.999 19.999-0.014 0-0.029 0-0.043 0h0.002z" />
<glyph unicode="&#xe92d;" glyph-name="dishwasher" d="M949.248 960h-878.049c-11.045 0-19.999-8.954-19.999-19.999v0-984.003c0-11.045 8.954-19.999 19.999-19.999h878.049c11.045 0 19.999 8.954 19.999 19.999v0 402.002c0 11.045-8.954 19.999-19.999 19.999s-19.999-8.954-19.999-19.999v-381.952h-838.052v703.949h838.001v-141.998c0-11.045 8.954-19.999 19.999-19.999s19.999 8.954 19.999 19.999v402.002c0 0 0 0 0 0 0 11.027-8.925 19.97-19.945 19.999h-0.003zM91.197 719.995v200.008h838.001v-200.008zM973.896 447.232c0-11.56-9.371-20.931-20.931-20.931s-20.931 9.371-20.931 20.931c0 11.56 9.371 20.931 20.931 20.931s20.931-9.371 20.931-20.931zM483.195 880.005c-33.135 0-59.996-26.861-59.996-59.996s26.861-59.996 59.996-59.996c33.135 0 59.996 26.861 59.996 59.996v0c-0.041 33.119-26.878 59.955-59.992 59.996h-0.004zM483.195 800c-11.045 0-19.999 8.954-19.999 19.999s8.954 19.999 19.999 19.999c11.045 0 19.999-8.954 19.999-19.999v0c-0.012-11.040-8.958-19.987-19.998-19.999h-0.001zM643.195 880.005c-33.135 0-59.996-26.861-59.996-59.996s26.861-59.996 59.996-59.996c33.135 0 59.996 26.861 59.996 59.996v0c-0.041 33.119-26.878 59.955-59.992 59.996h-0.004zM643.195 800c-11.045 0-19.999 8.954-19.999 19.999s8.954 19.999 19.999 19.999c11.045 0 19.999-8.954 19.999-19.999v0c-0.012-11.040-8.958-19.987-19.998-19.999h-0.001zM803.195 880.005c-33.135 0-59.996-26.861-59.996-59.996s26.861-59.996 59.996-59.996c33.135 0 59.996 26.861 59.996 59.996v0c-0.041 33.119-26.878 59.955-59.992 59.996h-0.004zM803.195 800c-11.045 0-19.999 8.954-19.999 19.999s8.954 19.999 19.999 19.999c11.045 0 19.999-8.954 19.999-19.999v0c-0.012-11.040-8.958-19.987-19.998-19.999h-0.001zM363.203 880.005h-185.999c-11.045 0-19.999-8.954-19.999-19.999v0-80.005c0-11.045 8.954-19.999 19.999-19.999v0h185.999c11.045 0 19.999 8.954 19.999 19.999v0 80.005c0 11.045-8.954 19.999-19.999 19.999v0zM343.204 800h-146.002v40.008h146.002zM231.199 640h-80.005c-11.045 0-19.999-8.954-19.999-19.999v-583.997c0-11.045 8.954-19.999 19.999-19.999v0h717.998c11.045 0 19.999 8.954 19.999 19.999v583.997c0 11.045-8.954 19.999-19.999 19.999v0h-79.995c-11.045 0-19.999-8.954-19.999-19.999v-59.996h-518.001v59.996c0 11.045-8.954 19.999-19.999 19.999v0zM260.219 216.003c0.023 88.371 71.667 160 160.041 160 17.91 0 35.133-2.942 51.212-8.369l-1.128 0.33c-17.138-14.727-31.581-31.975-42.903-51.276l-0.514-0.948c-2.232 0.143-4.465 0.246-6.697 0.246-54.794-0.572-98.992-45.124-98.992-99.999s44.198-99.427 98.938-99.998h0.054c2.253 0 4.495 0.102 6.738 0.246 11.832-20.25 26.272-37.498 43.141-52l0.266-0.224c-14.96-5.103-32.193-8.049-50.115-8.049-88.388 0-160.041 71.653-160.041 160.041v0zM600.187 56.003c-88.366 0-160 71.634-160 160s71.634 160 160 160c88.366 0 160-71.634 160-160v0c-0.105-88.323-71.677-159.895-159.99-160h-0.010zM409.088 157.051c-28.021 5.413-48.895 29.744-48.895 58.952s20.874 53.539 48.518 58.891l0.377 0.061c-5.637-17.631-8.885-37.912-8.885-58.952s3.249-41.32 9.272-60.368l-0.386 1.416zM789.187 520.008c11.045 0 19.999 8.954 19.999 19.999v59.996h39.997v-544h-129.188c48.889 36.856 80.165 94.819 80.165 160.086 0 110.416-89.51 199.926-199.926 199.926-32.834 0-63.819-7.915-91.152-21.941l1.125 0.525c-26.236 13.534-57.259 21.468-90.136 21.468-110.433 0-199.956-89.524-199.956-199.956 0-65.276 31.279-123.246 79.665-159.741l0.507-0.367h-129.096v544h39.997v-59.996c0-11.045 8.954-19.999 19.999-19.999v0zM600.207 315.996c-55.231 0-100.004-44.773-100.004-100.004s44.773-100.004 100.004-100.004c55.231 0 100.004 44.773 100.004 100.004v0c-0.064 55.205-44.799 99.94-99.998 100.004h-0.006zM600.207 155.996c-33.135 0-59.996 26.861-59.996 59.996s26.861 59.996 59.996 59.996c33.135 0 59.996-26.861 59.996-59.996v0c-0.041-33.119-26.878-59.955-59.992-59.996h-0.004z" />
<glyph unicode="&#xe92e;" glyph-name="drainage" d="M874.035 810.035c-92.655 92.663-220.661 149.976-362.053 149.976-108.277 0-208.704-33.611-291.416-90.968l1.693 1.111c-5.268-3.656-8.674-9.673-8.674-16.486 0-11.048 8.956-20.005 20.005-20.005 4.235 0 8.163 1.316 11.396 3.561l-0.066-0.043c74.665 51.823 167.21 82.79 266.988 82.79 260.623 0 471.9-211.277 471.9-471.9s-211.277-471.9-471.9-471.9c-260.623 0-471.9 211.277-471.9 471.9 0 99.778 30.967 192.324 83.814 268.55l-1.024-1.562c2.203 3.168 3.519 7.095 3.519 11.331 0 11.046-8.954 20-20 20-6.811 0-12.826-3.404-16.438-8.604l-0.043-0.066c-56.263-81.027-89.883-181.468-89.883-289.761 0-282.77 229.23-512 512-512 141.407 0 269.425 57.325 362.082 150.005l0.001 0.001c92.655 92.654 149.963 220.654 149.963 362.040s-57.308 269.386-149.963 362.040v0zM834.908 224.819c2.993-1.88 6.631-2.994 10.529-2.994 7.147 0 13.418 3.747 16.957 9.383l0.049 0.083c38.625 61.568 61.535 136.403 61.535 216.588 0 227.505-184.429 411.935-411.935 411.935s-411.935-184.429-411.935-411.935c0-227.505 184.429-411.935 411.935-411.935 80.23 0 155.102 22.936 218.419 62.609l-1.723-1.007c5.717 3.586 9.462 9.855 9.462 16.998 0 11.045-8.954 19.999-19.999 19.999-3.902 0-7.543-1.117-10.62-3.050l0.083 0.049c-55.585-34.868-123.145-55.55-195.535-55.55-205.404 0-371.917 166.513-371.917 371.917s166.513 371.917 371.917 371.917c205.404 0 371.917-166.513 371.917-371.917 0-72.391-20.682-139.95-56.46-197.093l0.91 1.558c-1.898-3.003-3.025-6.657-3.025-10.575 0-7.132 3.733-13.392 9.352-16.932l0.083-0.049zM512 548.004c-55.231 0-100.004-44.773-100.004-100.004s44.773-100.004 100.004-100.004c55.231 0 100.004 44.773 100.004 100.004v0c-0.064 55.205-44.799 99.94-99.998 100.004h-0.006zM512 508.006c25.954-0.030 48.051-16.513 56.423-39.579l0.133-0.418h-113.121c8.511 23.483 30.609 39.966 56.562 39.997h0.004zM512 388.004c-25.956 0.032-48.055 16.514-56.433 39.579l-0.133 0.418h113.121c-8.504-23.484-30.601-39.967-56.552-39.997h-0.004zM512 783.995c-55.231 0-100.004-44.773-100.004-100.004s44.773-100.004 100.004-100.004c55.231 0 100.004 44.773 100.004 100.004v0c-0.064 55.205-44.799 99.94-99.998 100.004h-0.006zM512 623.995c-33.135 0-59.996 26.861-59.996 59.996s26.861 59.996 59.996 59.996c33.135 0 59.996-26.861 59.996-59.996v0c-0.041-33.119-26.878-59.955-59.992-59.996h-0.004zM357.612 652.595c-14.345 8.426-31.596 13.402-50.009 13.402-55.231 0-100.004-44.773-100.004-100.004s44.773-100.004 100.004-100.004c36.821 0 68.994 19.9 86.352 49.532l0.255 0.472c8.397 14.336 13.356 31.568 13.356 49.959 0 36.819-19.876 68.996-49.483 86.387l-0.47 0.255zM359.567 535.992c-10.561-18.060-29.86-29.999-51.947-29.999-33.124 0-59.976 26.852-59.976 59.976s26.852 59.976 59.976 59.976c11.039 0 21.381-2.982 30.265-8.185l-0.283 0.153c18.12-10.456 30.12-29.728 30.12-51.802 0-11.084-3.026-21.462-8.296-30.353l0.151 0.276zM333.496 426.588c-7.763 2.164-16.677 3.407-25.881 3.407-55.231 0-100.004-44.773-100.004-100.004s44.773-100.004 100.004-100.004c55.231 0 100.004 44.773 100.004 100.004 0 18.411-4.975 35.661-13.655 50.477l0.255-0.472c-13.218 22.743-34.593 39.513-60.027 46.431l-0.696 0.161zM337.592 278.036c-8.608-5.058-18.96-8.045-30.010-8.045-33.135 0-59.996 26.861-59.996 59.996s26.861 59.996 59.996 59.996c22.102 0 41.412-11.951 51.822-29.744l0.153-0.284c5.030-8.596 8-18.927 8-29.952 0-22.080-11.913-41.377-29.663-51.815l-0.282-0.153zM512 312.003c-55.231 0-100.004-44.773-100.004-100.004s44.773-100.004 100.004-100.004c55.231 0 100.004 44.773 100.004 100.004v0c-0.064 55.205-44.799 99.94-99.998 100.004h-0.006zM512 152.003c-33.135 0-59.996 26.861-59.996 59.996s26.861 59.996 59.996 59.996c33.135 0 59.996-26.861 59.996-59.996v0c-0.041-33.119-26.878-59.955-59.992-59.996h-0.004zM766.382 416.604c-14.338 8.418-31.579 13.389-49.981 13.389-55.219 0-99.983-44.764-99.983-99.983s44.764-99.983 99.983-99.983c36.806 0 68.968 19.888 86.324 49.504l0.255 0.471c8.577 14.386 13.647 31.725 13.647 50.248 0 36.807-20.020 68.938-49.765 86.098l-0.48 0.255zM768.338 300.001c-10.565-18.108-29.9-30.083-52.031-30.083-33.158 0-60.037 26.88-60.037 60.037s26.88 60.037 60.037 60.037c11.072 0 21.444-2.997 30.349-8.224l-0.282 0.153c18.042-10.591 29.964-29.896 29.964-51.986 0-11.018-2.966-21.343-8.143-30.22l0.154 0.286zM802.99 615.997c-17.617 30.16-49.832 50.102-86.705 50.102-55.27 0-100.076-44.805-100.076-100.076s44.805-100.076 100.076-100.076c18.452 0 35.737 4.994 50.578 13.703l-0.471-0.255c30.078 17.646 49.953 49.824 49.953 86.643 0 18.391-4.959 35.623-13.612 50.433l0.256-0.474zM746.394 514.038c-8.606-5.056-18.956-8.043-30.004-8.043-33.129 0-59.986 26.857-59.986 59.986s26.857 59.986 59.986 59.986c22.093 0 41.396-11.943 51.805-29.726l0.153-0.283c5.14-8.628 8.178-19.026 8.178-30.134 0-22.063-11.987-41.327-29.804-51.633l-0.287-0.153zM164.086 775.895c11.042 0.004 19.992 8.956 19.992 19.999 0 11.045-8.954 19.999-19.999 19.999-5.215 0-9.964-1.996-13.524-5.266l0.015 0.013c-4.004-3.668-6.505-8.92-6.505-14.756 0-11.039 8.949-19.988 19.988-19.988 0.012 0 0.023 0 0.035 0h-0.002zM775.67 185.549v0c-3.984-3.668-6.471-8.908-6.471-14.729 0-11.045 8.954-19.999 19.999-19.999s19.999 8.954 19.999 19.999c0 5.216-1.997 9.965-5.267 13.525l0.013-0.014c-3.668 4.002-8.919 6.503-14.754 6.503-5.23 0-9.991-2.009-13.553-5.296l0.014 0.012z" />
<glyph unicode="&#xe92f;" glyph-name="earth" d="M775.322 31.969c-3.527 5.998-9.949 9.96-17.296 9.96-3.696 0-7.157-1.003-10.128-2.75l0.094 0.051-0.768-0.44c-6.163-3.487-10.256-9.998-10.256-17.465 0-11.045 8.954-19.999 19.999-19.999 3.816 0 7.382 1.069 10.415 2.923l-0.088-0.050 0.768 0.44c5.998 3.527 9.96 9.949 9.96 17.296 0 3.696-1.003 7.157-2.75 10.128l0.051-0.094zM955.392 703.846c-90.149 154.088-254.828 255.948-443.298 255.948-235.586 0-434-159.154-493.587-375.809l-0.843-3.593c-11.058-39.71-17.413-85.31-17.413-132.394 0-282.77 229.23-512 512-512 65.78 0 128.662 12.405 186.436 35.003l-3.482-1.199c7.719 2.889 13.114 10.203 13.114 18.776 0 11.045-8.954 19.999-19.999 19.999-2.685 0-5.246-0.529-7.585-1.488l0.133 0.048c-50.351-20.145-108.713-31.83-169.805-31.83-106.109 0-203.985 35.249-282.558 94.676l1.178-0.854 17.92 93.532 8.632 2.806c25.152 8.391 42.963 31.723 42.963 59.216 0 6.856-1.108 13.452-3.153 19.622l0.126-0.44-6.339 19.456c-0.7 2.059-1.104 4.431-1.104 6.897s0.404 4.838 1.15 7.052l-0.046-0.156c1.981 5.811 3.124 12.506 3.124 19.467 0 30.135-21.423 55.265-49.871 60.993l-0.398 0.067-45.138 8.817-87.101 66.191c-3.326 2.56-7.551 4.103-12.136 4.103-2.199 0-4.315-0.355-6.294-1.010l0.141 0.041-50.995-16.568c-0.527 8.346-0.828 18.099-0.828 27.923 0 9.388 0.274 18.712 0.816 27.964l-0.060-1.277c2.048-1.874 3.318-3.144 4.096-3.983 3.741-6.083 10.361-10.078 17.914-10.078 0.571 0 1.138 0.023 1.697 0.068l-0.074-0.005c13.251 0.699 25.565 2.161 37.62 4.366l-1.78-0.27c16.876 2.499 33.659 5.304 33.792 5.335 9.56 1.617 16.751 9.835 16.751 19.733 0 4.198-1.293 8.094-3.503 11.311l0.044-0.068-24.525 35.963 35.123 25.119c2.337 1.684 4.255 3.795 5.673 6.233l0.051 0.096 54.446 95.048 21.944 23.552c14.016 15.038 22.62 35.282 22.62 57.534 0 11.56-2.322 22.578-6.525 32.613l0.207-0.557c-7.604 18.028-20.199 32.707-36.052 42.681l-0.382 0.224c78.080 61.886 177.707 99.693 286.122 100.892l0.27 0.002-35.707-44.8-132.434-46.418c-5.414-1.939-9.661-5.989-11.819-11.132l-0.049-0.132-36.987-89.59c-0.955-2.253-1.51-4.873-1.51-7.622 0-4.359 1.395-8.392 3.762-11.678l-0.041 0.059 54.016-75.663c-8.862-8.953-16.854-18.802-23.816-29.388l-0.443-0.717c-3.942-5.601-7.67-10.885-10.24-13.844-2.243-2.58-4.475-5.12-6.697-7.598-12.516-12.851-23.229-27.546-31.673-43.62l-0.491-1.026c-7.484-15.147-11.862-32.978-11.862-51.832 0-25.719 8.147-49.535 22.001-69.008l-0.248 0.367c20.634-28.303 53.675-46.486 90.963-46.486 5.297 0 10.509 0.367 15.611 1.077l-0.589-0.067c7.573 1.039 14.186 2.418 20.631 4.2l-1.094-0.258c17.142 4.239 22.528 4.669 28.078-0.481 2.673-2.509 2.918-2.98 2.867-11.479-0.037-0.895-0.058-1.946-0.058-3.002 0-5.958 0.67-11.76 1.94-17.334l-0.1 0.521c3.318-10.923 9.166-20.243 16.883-27.626l0.023-0.022c2.751-2.686 5.151-5.711 7.137-9.014l0.113-0.202c6.236-14.95 3.523-23.224-2.427-41.37q-0.768-2.324-1.556-4.762c-9.042-27.986 3.564-55.757 14.684-80.251 3.615-7.956 7.025-15.462 9.216-22.098 17.981-53.361 31.457-65.536 42.281-70.502 5.048-2.342 10.958-3.707 17.186-3.707 0.078 0 0.156 0 0.234 0.001h-0.012c28.826 0 58.911 26.767 72.704 43.735 6.35 8.080 10.753 17.977 12.34 28.789l0.040 0.333c0.453 3.328 1.351 6.342 2.642 9.137l-0.082-0.198c2.003 3.176 4.168 5.937 6.582 8.457l-0.018-0.019c7.275 7.447 12.895 16.545 16.244 26.676l0.14 0.49c2.473 8.544 7.208 15.78 13.514 21.253l0.054 0.046c1.372 1.464 2.847 3.072 4.413 4.741 26.624 28.989 19.773 51.128 12.513 74.568-6.144 19.722 4.577 32.338 30.433 56.422 11.754 10.231 22.18 21.436 31.343 33.643l0.401 0.558c3.922 5.673 15.841 22.938 8.468 40.059-7.229 16.783-25.6 19.599-40.397 21.862-6.422 0.631-12.322 2.079-17.858 4.252l0.45-0.156c-12.37 8.090-19.948 24.975-27.269 41.308-1.454 3.246-2.898 6.461-4.352 9.574-2.601 5.56-5.202 12.288-7.946 19.395-6.78 21.143-16.865 39.464-29.805 55.368l0.242-0.307c-12.616 13.373-36.403 19.814-57.344 25.498-7.055 1.915-13.722 3.717-18.115 5.335-2.056 0.783-4.434 1.237-6.918 1.237-1.622 0-3.198-0.193-4.707-0.558l0.136 0.028c-8.102-1.408-15.295-4.509-21.476-8.933l0.157 0.107c-3.088-2.538-5.527-5.752-7.106-9.423l-0.062-0.161c-9.204 4.892-16.904 9.645-24.284 14.823l0.732-0.487-0.389 0.256c0.585 2.151 0.921 4.621 0.921 7.169 0 4.388-0.997 8.544-2.777 12.253l0.074-0.17c-11.172 23.634-48.261 21.78-55.572 21.156-4.157-0.348-9.411-0.532-14.981-0.727-8.735-0.307-18.432-0.655-27.945-1.731l0.492 1.372c7.306 19.845 26.031 33.751 48.010 33.792h11.371c11.045 0 19.999 8.954 19.999 19.999s-8.954 19.999-19.999 19.999h-11.346c-32.535-0.060-61.071-17.132-77.192-42.792l-0.223-0.38-29.829 41.789 29.348 71.137 129.403 45.363c3.648 1.304 6.702 3.517 8.991 6.371l0.031 0.039 57.528 72.161c156.248-14.999 288.846-104.229 363.431-231.563l1.205-2.226c19.377-32.928 35.485-70.991 46.352-111.206l0.752-3.267-8.479-7.557c-10.718-9.616-17.513-23.417-17.796-38.811l-0.001-0.050c0-0.164 0-0.317 0-0.481l-13.844 37.98c-2.187 5.946-5.237 11.072-9.057 15.519l0.056-0.066-24.637 28.846c-9.25 10.795-22.898 17.592-38.133 17.592-0.011 0-0.022 0-0.033 0h-30.124c-0.004 0-0.009 0-0.013 0-15.999 0-28.969-12.97-28.969-28.969 0-5.997 1.822-11.568 4.943-16.19l-0.065 0.103 3.072-4.577c-18.763-16.201-40.638-29.455-64.514-38.694l-1.514-0.515-41.339 79.186v17.684c0 0.012 0 0.027 0 0.041 0 5.662-2.354 10.775-6.137 14.411l-37.229 35.549c-1.989 1.902-4.379 3.402-7.028 4.359l-0.14 0.044-33.505 11.776c-1.982 0.722-4.27 1.14-6.656 1.14-11.049 0-20.007-8.957-20.007-20.007 0-8.664 5.507-16.041 13.211-18.823l0.139-0.044 29.45-10.353 27.924-26.624v-14.090c0.008-3.37 0.848-6.542 2.326-9.324l-0.052 0.108 51.753-99.133c3.407-6.438 10.063-10.75 17.725-10.75 2.485 0 4.865 0.454 7.060 1.283l-0.138-0.046 15.073 5.56c36.635 13.814 67.916 34.252 93.814 60.084l-0.006-0.006c3.618 3.619 5.856 8.618 5.856 14.14 0 4.134-1.254 7.975-3.403 11.163l0.045-0.071-1.024 1.597h9.554c0.002 0 0.005 0 0.007 0 3.094 0 5.866-1.381 7.733-3.56l0.012-0.014 24.637-28.846c0.765-0.888 1.386-1.928 1.81-3.063l0.023-0.070 27.187-74.752c2.877-7.741 10.202-13.157 18.792-13.157 5.522 0 10.521 2.238 14.14 5.856v0l12.892 12.954c7.972 8.038 13.775 18.238 16.454 29.642l0.084 0.423c2.383-17.846 3.744-38.478 3.744-59.428 0-150.027-69.762-283.76-178.617-370.529l-0.958-0.737c-4.685-3.697-7.664-9.375-7.664-15.749 0-11.053 8.96-20.014 20.014-20.014 4.679 0 8.984 1.606 12.392 4.297l-0.042-0.032c119.398 94.596 195.305 239.585 195.305 402.304 0 94.242-25.462 182.537-69.883 258.381l1.308-2.417zM94.566 394.506l82.463-62.7c2.322-1.78 5.11-3.077 8.146-3.686l0.128-0.021 49.705-9.708c10.326-2.049 18.003-11.037 18.003-21.817 0-2.477-0.405-4.859-1.153-7.084l0.046 0.157c-1.977-5.786-3.118-12.453-3.118-19.385 0-6.875 1.122-13.488 3.194-19.666l-0.127 0.436 6.339-19.456c0.684-2.044 1.079-4.398 1.079-6.844 0-9.819-6.36-18.153-15.186-21.106l-0.157-0.046-19.876-6.461c-6.89-2.288-12.039-8.036-13.435-15.131l-0.021-0.127-16.036-83.528c-35.452 32.559-65.714 69.994-89.916 111.404l-1.22 2.26c-28.253 47.957-48.652 104.077-57.756 163.909l-0.326 2.603zM211.118 713.482l-23.552-25.211c-1.016-1.088-1.921-2.302-2.683-3.611l-0.051-0.096-53.422-93.276-47.442-33.935c-5.093-3.672-8.37-9.588-8.37-16.27 0-4.208 1.299-8.112 3.519-11.333l-0.044 0.067 17.756-26.051c-10.24-1.526-19.456-2.775-25.528-3.451-1.178 1.126-2.406 2.263-3.676 3.451-4.751 4.413-11.356 10.312-21.207 18.934 17.458 106.109 68.073 198.156 140.671 267.34l0.19 0.18c14.776-4.757 26.434-15.528 32.281-29.355l0.128-0.341c2.094-4.973 3.311-10.754 3.311-16.819 0-11.689-4.519-22.323-11.906-30.25l0.024 0.026zM374.18 604.201c8.919 5.018 29.624 5.755 44.739 6.287 6.062 0.215 11.786 0.42 16.896 0.85 1.275 0.106 2.761 0.167 4.26 0.167s2.984-0.061 4.453-0.18l-0.193 0.013c-0.86-2.148-1.358-4.638-1.358-7.244 0-7.595 4.233-14.2 10.469-17.586l0.105-0.052c3.748-2.048 8.97-5.489 14.5-9.216 15.626-10.424 33.352-22.231 49.992-23.286 0.642-0.044 1.391-0.069 2.146-0.069 9.965 0 18.905 4.392 24.988 11.346l0.033 0.039c0.287 0.297 0.563 0.584 0.85 0.85 2.18 1.797 3.974 3.973 5.299 6.439l0.056 0.114c3.195-0.911 6.554-1.823 10.004-2.755 11.837-3.205 33.884-9.216 38.758-14.336 8.97-12.007 16.234-25.947 21.061-40.979l0.279-1.005c3.011-7.782 5.847-15.124 9.032-21.934 1.372-2.918 2.714-5.929 4.096-8.98 9.216-20.582 19.692-43.919 41.882-58.419 9.603-5.444 20.917-9.073 32.971-10.116l0.309-0.022c1.321-0.205 2.826-0.43 4.352-0.686-7.766-9.828-16.083-18.541-25.141-26.425l-0.234-0.199c-24.76-23.060-55.572-51.753-41.38-97.526 6.697-21.617 7.014-23.951-3.758-35.666-1.464-1.597-2.836-3.072-4.096-4.413-10.355-9.747-18.158-22.092-22.376-35.995l-0.152-0.582c-1.737-5.022-4.549-9.292-8.176-12.703l-0.016-0.015c-4.095-4.377-7.791-9.226-10.97-14.426l-0.222-0.391c-3.441-6.138-5.975-13.288-7.191-20.878l-0.049-0.37c-0.388-4.419-1.894-8.421-4.231-11.807l0.053 0.082c-7.278-8.572-15.588-15.951-24.817-22.053l-0.435-0.27c-4.638-3.599-10.368-6.004-16.619-6.664l-0.143-0.012c-2.13 2.284-9.861 12.288-21.504 46.971-2.877 8.55-6.871 17.357-10.742 25.866-8.52 18.76-17.326 38.164-13.036 51.415q0.758 2.345 1.495 4.588c6.84 20.859 13.312 40.561 1.331 69.243-3.785 8.028-8.669 14.89-14.558 20.743l-0.004 0.004c-3.049 2.868-5.601 6.22-7.541 9.942l-0.098 0.206c-0.455 2.355-0.716 5.064-0.716 7.834 0 0.803 0.022 1.601 0.065 2.393l-0.005-0.11c0.143 1.411 0.224 3.050 0.224 4.707 0 14.294-6.046 27.175-15.72 36.227l-0.028 0.026c-22.129 20.716-47.944 14.336-65.024 10.107-3.931-1.14-8.863-2.211-13.893-2.984l-0.699-0.088c-3.165-0.494-6.815-0.776-10.531-0.776-23.921 0-45.112 11.691-58.17 29.671l-0.143 0.207c-8.908 12.631-14.238 28.342-14.238 45.298 0 12.648 2.966 24.603 8.24 35.209l-0.207-0.46c7.251 13.444 15.847 25.005 25.863 35.161l-0.017-0.017c2.324 2.611 4.669 5.253 7.014 7.946 3.901 4.495 8.192 10.588 12.728 17.029 5.985 9.311 12.543 17.404 19.882 24.715l0.005 0.005zM820.050 271.452l-9.626 36.27c-2.365 8.599-10.114 14.812-19.314 14.812-7.529 0-14.085-4.16-17.497-10.307l-0.052-0.102c-2.191-4.045-4.168-8.315-6.072-12.462-2.82-6.927-6.172-12.899-10.156-18.383l0.172 0.248c-3.364-2.797-7.24-5.141-11.44-6.857l-0.295-0.107c-15.406-5.473-27.415-17.174-33.182-31.994l-0.128-0.375c-1.554-5.018-2.45-10.787-2.45-16.765 0-4.050 0.411-8.005 1.193-11.824l-0.065 0.378c0.471-1.541 0.742-3.311 0.742-5.146 0-2.39-0.46-4.672-1.298-6.763l0.043 0.123-0.205-0.471c-6.369-14.94-18.207-42.752-1.597-66.386 6.897-12.123 19.398-20.364 33.885-21.202l0.112-0.005c0.020 0 0.044 0 0.067 0 1.86 0 3.684 0.156 5.459 0.457l-0.191-0.027c20.398 3.338 35.738 24.576 48.271 66.785l23.552 79.278c0.497 1.659 0.782 3.566 0.782 5.539 0 1.88-0.259 3.7-0.745 5.425l0.034-0.141zM758.026 192.727c-3.393-13.667-8.653-25.687-15.59-36.531l0.291 0.487c-0.379 0.481-0.788 1.024-1.219 1.649-3.82 5.448 1.894 18.852 5.673 27.73l0.205 0.471c2.808 6.47 4.442 14.006 4.442 21.923 0 4.035-0.424 7.971-1.231 11.766l0.066-0.368c-0.441 1.606-0.694 3.449-0.694 5.352 0 1.786 0.223 3.521 0.644 5.176l-0.031-0.145c0.788 2.499 5.468 4.915 12.534 8.325 3.133 1.516 6.574 3.174 10.056 5.181zM540.047 722.278l-1.352 0.471c-1.972 0.714-4.248 1.127-6.62 1.127-11.046 0-20-8.954-20-20 0-8.673 5.521-16.057 13.24-18.829l0.14-0.044 1.352-0.471c1.972-0.714 4.248-1.127 6.62-1.127 11.046 0 20 8.954 20 20 0 8.673-5.521 16.057-13.24 18.829l-0.14 0.044z" />
<glyph unicode="&#xe930;" glyph-name="electric-plug" d="M819.2 632.32h-71.168v250.88c0 42.415-34.385 76.8-76.8 76.8s-76.8-34.385-76.8-76.8v0-250.88h-164.864v250.88c0 42.415-34.385 76.8-76.8 76.8s-76.8-34.385-76.8-76.8v0-250.88h-71.168c-11.311 0-20.48-9.169-20.48-20.48v0-318.71c0.087-72.784 59.066-131.763 131.842-131.85h37.118v-71.68c0-11.311 9.169-20.48 20.48-20.48v0h66.56v-112.64c0-11.311 9.169-20.48 20.48-20.48v0h102.4c11.311 0 20.48 9.169 20.48 20.48v0 112.64h66.56c11.311 0 20.48 9.169 20.48 20.48v0 71.68h37.11c72.784 0.087 131.763 59.066 131.85 131.842v318.719c0 11.311-9.169 20.48-20.48 20.48v0zM635.392 883.2c0 19.794 16.046 35.84 35.84 35.84s35.84-16.046 35.84-35.84v0-250.88h-71.68zM316.928 883.2c0 19.794 16.046 35.84 35.84 35.84s35.84-16.046 35.84-35.84v0-250.88h-71.68zM542.72-23.040h-61.44v92.16h61.44zM629.76 110.080h-235.52v51.2h235.52zM798.72 536.596h-113.152c-11.311 0-20.48-9.169-20.48-20.48s9.169-20.48 20.48-20.48v0h113.152v-202.506c-0.058-50.174-40.716-90.832-90.885-90.89h-391.665c-50.174 0.058-90.832 40.716-90.89 90.885v202.512h286.72c11.311 0 20.48 9.169 20.48 20.48s-9.169 20.48-20.48 20.48v0h-286.72v54.764h573.44zM597.504 495.647h5.12c11.311 0 20.48 9.169 20.48 20.48s-9.169 20.48-20.48 20.48v0h-5.12c-11.311 0-20.48-9.169-20.48-20.48s9.169-20.48 20.48-20.48v0z" />
<glyph unicode="&#xe931;" glyph-name="emergency-exclamation" d="M1004.001 428.042c0 0 0 0 0 0-11.031 0-19.975 8.93-19.999 19.956v0.944c0 0.018 0 0.040 0 0.062 0 11.023 8.919 19.964 19.934 19.999h0.064c0 0 0 0 0 0 11.023 0 19.964-8.919 19.999-19.934v-1.027c0-11.045-8.954-19.999-19.999-19.999v0zM530.237 165.458h-36.454c-33.007 0.023-59.761 26.766-59.802 59.767v34.001c0.035 33.002 26.779 59.746 59.778 59.781h36.478c32.998-0.041 59.736-26.783 59.771-59.778v-34c-0.041-32.994-26.777-59.73-59.767-59.771h-0.004zM493.783 279.040c-10.916-0.012-19.762-8.858-19.773-19.772v-33.998c0.012-10.916 8.858-19.762 19.772-19.773h36.456c10.916 0.012 19.762 8.858 19.773 19.772v33.998c-0.012 10.916-8.858 19.762-19.772 19.773h-0.001zM570.040 365.435h-116.029c-10.181 0.002-18.584 7.611-19.835 17.452l-0.010 0.099-34.724 282.061c-0.281 2.152-0.442 4.641-0.442 7.168 0 32.233 26.127 58.363 58.359 58.368h109.302c32.232-0.005 58.359-26.135 58.359-58.368 0-2.527-0.161-5.016-0.472-7.458l0.030 0.29-34.724-282.061c-1.26-9.93-9.646-17.534-19.813-17.551h-0.002zM471.736 405.432h80.609l32.563 264.509c0.088 0.673 0.137 1.452 0.137 2.243 0 10.138-8.217 18.357-18.354 18.36h-109.292c-10.138-0.003-18.354-8.222-18.354-18.36 0-0.79 0.050-1.569 0.147-2.333l-0.009 0.091zM511.928 50.483c-219.542 0-397.517 177.974-397.517 397.517s177.974 397.517 397.517 397.517c219.542 0 397.517-177.974 397.517-397.517v0c-0.256-219.439-178.077-397.26-397.492-397.517h-0.025zM511.928 805.519c-197.452 0-357.519-160.067-357.519-357.519s160.067-357.519 357.519-357.519c197.452 0 357.519 160.067 357.519 357.519v0c-0.227 197.361-160.158 357.292-357.498 357.519h-0.022zM511.928-64c-282.745 0.033-511.942 229.251-511.942 512 0 141.383 57.306 269.381 149.958 362.035v0c92.652 92.642 220.644 149.942 362.019 149.942 249.189 0 456.799-178.017 502.595-413.816l0.522-3.226c0.232-1.143 0.364-2.456 0.364-3.801 0-11.045-8.954-19.999-19.999-19.999-9.782 0-17.924 7.023-19.658 16.303l-0.019 0.124c-42.705 220.346-234.094 384.451-463.811 384.451-260.68 0-472.003-211.323-472.003-472.003s211.323-472.003 472.003-472.003c229.717 0 421.106 164.104 463.33 381.476l0.481 2.975c1.888 9.241 9.95 16.095 19.614 16.095 11.045 0 19.999-8.954 19.999-19.999 0-1.222-0.11-2.419-0.32-3.581l0.018 0.122c-46.262-239.045-253.868-417.096-503.059-417.096-0.033 0-0.065 0-0.098 0h0.005z" />
</font>
</defs>
</svg>
